  0
SECTION
  2
HEADER
  9
$ACADVER
  1
AC1027
  9
$ACADMAINTVER
 70
    55
  9
$DWGCODEPAGE
  3
ANSI_949
  9
$LASTSAVEDBY
  1
DESKTOP
  9
$REQUIREDVERSIONS
160
                 0
  9
$INSBASE
 10
0.0
 20
0.0
 30
0.0
  9
$EXTMIN
 10
-2.878267557307935
 20
-2.866315284702864
 30
-0.0000000000000058
  9
$EXTMAX
 10
278.6942720341485
 20
195.6398965493981
 30
0.0000000000000094
  9
$LIMMIN
 10
0.0
 20
0.0
  9
$LIMMAX
 10
420.0
 20
297.0
  9
$ORTHOMODE
 70
     0
  9
$REGENMODE
 70
     1
  9
$FILLMODE
 70
     1
  9
$QTEXTMODE
 70
     0
  9
$MIRRTEXT
 70
     0
  9
$LTSCALE
 40
5.0
  9
$ATTMODE
 70
     1
  9
$TEXTSIZE
 40
3.0
  9
$TRACEWID
 40
1.0
  9
$TEXTSTYLE
  7
Standard
  9
$CLAYER
  8
0
  9
$CELTYPE
  6
Continuous
  9
$CECOLOR
 62
     7
  9
$CELTSCALE
 40
1.0
  9
$DISPSILH
 70
     0
  9
$DIMSCALE
 40
1.0
  9
$DIMASZ
 40
2.5
  9
$DIMEXO
 40
0.625
  9
$DIMDLI
 40
3.75
  9
$DIMRND
 40
0.0
  9
$DIMDLE
 40
0.0
  9
$DIMEXE
 40
1.25
  9
$DIMTP
 40
0.0
  9
$DIMTM
 40
0.000000001
  9
$DIMTXT
 40
3.0
  9
$DIMCEN
 40
-0.5
  9
$DIMTSZ
 40
0.0
  9
$DIMTOL
 70
     0
  9
$DIMLIM
 70
     0
  9
$DIMTIH
 70
     0
  9
$DIMTOH
 70
     0
  9
$DIMSE1
 70
     0
  9
$DIMSE2
 70
     0
  9
$DIMTAD
 70
     1
  9
$DIMZIN
 70
     8
  9
$DIMBLK
  1

  9
$DIMASO
 70
     1
  9
$DIMSHO
 70
     1
  9
$DIMPOST
  1

  9
$DIMAPOST
  1

  9
$DIMALT
 70
     0
  9
$DIMALTD
 70
     3
  9
$DIMALTF
 40
0.03937007874016
  9
$DIMLFAC
 40
1.0
  9
$DIMTOFL
 70
     1
  9
$DIMTVP
 40
0.0
  9
$DIMTIX
 70
     0
  9
$DIMSOXD
 70
     0
  9
$DIMSAH
 70
     0
  9
$DIMBLK1
  1

  9
$DIMBLK2
  1

  9
$DIMSTYLE
  2
Standard
  9
$DIMCLRD
 70
     3
  9
$DIMCLRE
 70
     3
  9
$DIMCLRT
 70
     2
  9
$DIMTFAC
 40
0.7
  9
$DIMGAP
 40
0.625
  9
$DIMJUST
 70
     0
  9
$DIMSD1
 70
     0
  9
$DIMSD2
 70
     0
  9
$DIMTOLJ
 70
     0
  9
$DIMTZIN
 70
     8
  9
$DIMALTZ
 70
     0
  9
$DIMALTTZ
 70
     0
  9
$DIMUPT
 70
     0
  9
$DIMDEC
 70
     8
  9
$DIMTDEC
 70
     8
  9
$DIMALTU
 70
     2
  9
$DIMALTTD
 70
     3
  9
$DIMTXSTY
  7
Standard
  9
$DIMAUNIT
 70
     1
  9
$DIMADEC
 70
     0
  9
$DIMALTRND
 40
0.0
  9
$DIMAZIN
 70
     0
  9
$DIMDSEP
 70
    46
  9
$DIMATFIT
 70
     3
  9
$DIMFRAC
 70
     0
  9
$DIMLDRBLK
  1

  9
$DIMLUNIT
 70
     2
  9
$DIMLWD
 70
    -1
  9
$DIMLWE
 70
    -1
  9
$DIMTMOVE
 70
     0
  9
$DIMFXL
 40
1.0
  9
$DIMFXLON
 70
     0
  9
$DIMJOGANG
 40
0.7853981633974483
  9
$DIMTFILL
 70
     0
  9
$DIMTFILLCLR
 70
     0
  9
$DIMARCSYM
 70
     1
  9
$DIMLTYPE
  6

  9
$DIMLTEX1
  6

  9
$DIMLTEX2
  6

  9
$DIMTXTDIRECTION
 70
     0
  9
$LUNITS
 70
     2
  9
$LUPREC
 70
     4
  9
$SKETCHINC
 40
0.0
  9
$FILLETRAD
 40
0.0
  9
$AUNITS
 70
     0
  9
$AUPREC
 70
     0
  9
$MENU
  1
.
  9
$ELEVATION
 40
0.0
  9
$PELEVATION
 40
0.0
  9
$THICKNESS
 40
0.0
  9
$LIMCHECK
 70
     0
  9
$CHAMFERA
 40
1.5
  9
$CHAMFERB
 40
1.5
  9
$CHAMFERC
 40
0.0
  9
$CHAMFERD
 40
0.0087266462599716
  9
$SKPOLY
 70
     0
  9
$TDCREATE
 40
2455072.745932974
  9
$TDUCREATE
 40
2455072.370932974
  9
$TDUPDATE
 40
2460950.387675961
  9
$TDUUPDATE
 40
2460950.012675961
  9
$TDINDWG
 40
132.0747235185
  9
$TDUSRTIMER
 40
132.0747233333
  9
$USRTIMER
 70
     1
  9
$ANGBASE
 50
0.0
  9
$ANGDIR
 70
     0
  9
$PDMODE
 70
     0
  9
$PDSIZE
 40
0.0
  9
$PLINEWID
 40
0.0
  9
$SPLFRAME
 70
     0
  9
$SPLINETYPE
 70
     6
  9
$SPLINESEGS
 70
     8
  9
$HANDSEED
  5
39DA7
  9
$SURFTAB1
 70
     6
  9
$SURFTAB2
 70
     6
  9
$SURFTYPE
 70
     6
  9
$SURFU
 70
     6
  9
$SURFV
 70
     6
  9
$UCSBASE
  2

  9
$UCSNAME
  2

  9
$UCSORG
 10
0.0
 20
0.0
 30
0.0
  9
$UCSXDIR
 10
1.0
 20
0.0
 30
0.0
  9
$UCSYDIR
 10
0.0
 20
1.0
 30
0.0
  9
$UCSORTHOREF
  2

  9
$UCSORTHOVIEW
 70
     0
  9
$UCSORGTOP
 10
0.0
 20
0.0
 30
0.0
  9
$UCSORGBOTTOM
 10
0.0
 20
0.0
 30
0.0
  9
$UCSORGLEFT
 10
0.0
 20
0.0
 30
0.0
  9
$UCSORGRIGHT
 10
0.0
 20
0.0
 30
0.0
  9
$UCSORGFRONT
 10
0.0
 20
0.0
 30
0.0
  9
$UCSORGBACK
 10
0.0
 20
0.0
 30
0.0
  9
$PUCSBASE
  2

  9
$PUCSNAME
  2

  9
$PUCSORG
 10
0.0
 20
0.0
 30
0.0
  9
$PUCSXDIR
 10
1.0
 20
0.0
 30
0.0
  9
$PUCSYDIR
 10
0.0
 20
1.0
 30
0.0
  9
$PUCSORTHOREF
  2

  9
$PUCSORTHOVIEW
 70
     0
  9
$PUCSORGTOP
 10
0.0
 20
0.0
 30
0.0
  9
$PUCSORGBOTTOM
 10
0.0
 20
0.0
 30
0.0
  9
$PUCSORGLEFT
 10
0.0
 20
0.0
 30
0.0
  9
$PUCSORGRIGHT
 10
0.0
 20
0.0
 30
0.0
  9
$PUCSORGFRONT
 10
0.0
 20
0.0
 30
0.0
  9
$PUCSORGBACK
 10
0.0
 20
0.0
 30
0.0
  9
$USERI1
 70
     0
  9
$USERI2
 70
     0
  9
$USERI3
 70
     0
  9
$USERI4
 70
     0
  9
$USERI5
 70
     0
  9
$USERR1
 40
0.0
  9
$USERR2
 40
0.0
  9
$USERR3
 40
0.0
  9
$USERR4
 40
0.0
  9
$USERR5
 40
0.0
  9
$WORLDVIEW
 70
     1
  9
$SHADEDGE
 70
     3
  9
$SHADEDIF
 70
    70
  9
$TILEMODE
 70
     1
  9
$MAXACTVP
 70
    64
  9
$PINSBASE
 10
0.0
 20
0.0
 30
0.0
  9
$PLIMCHECK
 70
     0
  9
$PEXTMIN
 10
1.000000000000000E+20
 20
1.000000000000000E+20
 30
1.000000000000000E+20
  9
$PEXTMAX
 10
-1.000000000000000E+20
 20
-1.000000000000000E+20
 30
-1.000000000000000E+20
  9
$PLIMMIN
 10
-20.0
 20
-7.5
  9
$PLIMMAX
 10
277.0
 20
202.5
  9
$UNITMODE
 70
     0
  9
$VISRETAIN
 70
     1
  9
$PLINEGEN
 70
     0
  9
$PSLTSCALE
 70
     1
  9
$TREEDEPTH
 70
  3020
  9
$CMLSTYLE
  2
Standard
  9
$CMLJUST
 70
     0
  9
$CMLSCALE
 40
20.0
  9
$PROXYGRAPHICS
 70
     1
  9
$MEASUREMENT
 70
     1
  9
$CELWEIGHT
370
    -1
  9
$ENDCAPS
280
     0
  9
$JOINSTYLE
280
     0
  9
$LWDISPLAY
290
     0
  9
$INSUNITS
 70
     4
  9
$HYPERLINKBASE
  1

  9
$STYLESHEET
  1
ksm0910.ctb
  9
$XEDIT
290
     1
  9
$CEPSNTYPE
380
     0
  9
$PSTYLEMODE
290
     1
  9
$FINGERPRINTGUID
  2
{D2C70C36-9B4F-4E20-9CCB-531AA1EE4AC8}
  9
$VERSIONGUID
  2
{71B7B66D-E1B2-4037-90ED-2D8FC08E4B4F}
  9
$EXTNAMES
290
     1
  9
$PSVPSCALE
 40
0.0
  9
$OLESTARTUP
290
     0
  9
$SORTENTS
280
   127
  9
$INDEXCTL
280
     0
  9
$HIDETEXT
280
     1
  9
$XCLIPFRAME
280
     2
  9
$HALOGAP
280
     0
  9
$OBSCOLOR
 70
   257
  9
$OBSLTYPE
280
     0
  9
$INTERSECTIONDISPLAY
280
     0
  9
$INTERSECTIONCOLOR
 70
   257
  9
$DIMASSOC
280
     1
  9
$PROJECTNAME
  1

  9
$CAMERADISPLAY
290
     0
  9
$LENSLENGTH
 40
50.0
  9
$CAMERAHEIGHT
 40
0.0
  9
$STEPSPERSEC
 40
2.0
  9
$STEPSIZE
 40
6.0
  9
$3DDWFPREC
 40
2.0
  9
$PSOLWIDTH
 40
5.0
  9
$PSOLHEIGHT
 40
80.0
  9
$LOFTANG1
 40
1.570796326794896
  9
$LOFTANG2
 40
1.570796326794896
  9
$LOFTMAG1
 40
0.0
  9
$LOFTMAG2
 40
0.0
  9
$LOFTPARAM
 70
     7
  9
$LOFTNORMALS
280
     1
  9
$LATITUDE
 40
37.795
  9
$LONGITUDE
 40
-122.394
  9
$NORTHDIRECTION
 40
0.0
  9
$TIMEZONE
 70
 -8000
  9
$LIGHTGLYPHDISPLAY
280
     1
  9
$TILEMODELIGHTSYNCH
280
     1
  9
$CMATERIAL
347
3D
  9
$SOLIDHIST
280
     1
  9
$SHOWHIST
280
     1
  9
$DWFFRAME
280
     2
  9
$DGNFRAME
280
     0
  9
$REALWORLDSCALE
290
     1
  9
$INTERFERECOLOR
 62
     1
  9
$INTERFEREOBJVS
345
46
  9
$INTERFEREVPVS
346
47
  9
$CSHADOW
280
     0
  9
$SHADOWPLANELOCATION
 40
0.0
  0
ENDSEC
  0
SECTION
  2
CLASSES
  0
CLASS
  1
ACDBDICTIONARYWDFLT
  2
AcDbDictionaryWithDefault
  3
ObjectDBX Classes
 90
        0
 91
        1
280
     0
281
     0
  0
CLASS
  1
DICTIONARYVAR
  2
AcDbDictionaryVar
  3
ObjectDBX Classes
 90
        0
 91
       18
280
     0
281
     0
  0
CLASS
  1
TABLESTYLE
  2
AcDbTableStyle
  3
ObjectDBX Classes
 90
     4095
 91
        1
280
     0
281
     0
  0
CLASS
  1
MATERIAL
  2
AcDbMaterial
  3
ObjectDBX Classes
 90
     1153
 91
        3
280
     0
281
     0
  0
CLASS
  1
VISUALSTYLE
  2
AcDbVisualStyle
  3
ObjectDBX Classes
 90
     4095
 91
       26
280
     0
281
     0
  0
CLASS
  1
SCALE
  2
AcDbScale
  3
ObjectDBX Classes
 90
     1153
 91
       17
280
     0
281
     0
  0
CLASS
  1
MLEADERSTYLE
  2
AcDbMLeaderStyle
  3
ACDB_MLEADERSTYLE_CLASS
 90
     4095
 91
        1
280
     0
281
     0
  0
CLASS
  1
CELLSTYLEMAP
  2
AcDbCellStyleMap
  3
ObjectDBX Classes
 90
     1152
 91
        2
280
     0
281
     0
  0
CLASS
  1
SORTENTSTABLE
  2
AcDbSortentsTable
  3
ObjectDBX Classes
 90
        0
 91
        1
280
     0
281
     0
  0
CLASS
  1
DIMASSOC
  2
AcDbDimAssoc
  3
"AcDbDimAssoc|Product Desc:     AcDim ARX App For Dimension|Company:          Autodesk, Inc.|WEB Address:      www.autodesk.com"
 90
        0
 91
        0
280
     0
281
     0
  0
CLASS
  1
SOLID_BACKGROUND
  2
AcDbSolidBackground
  3
SCENEOE
 90
     4095
 91
        0
280
     0
281
     0
  0
CLASS
  1
NPOCOLLECTION
  2
AcDbImpNonPersistentObjectsCollection
  3
ObjectDBX Classes
 90
     1153
 91
        0
280
     0
281
     0
  0
CLASS
  1
ACAD_EVALUATION_GRAPH
  2
AcDbEvalGraph
  3
ObjectDBX Classes
 90
     1153
 91
        0
280
     0
281
     0
  0
CLASS
  1
ACAECUSTOBJ
  2
AcAeEditorObj
  3
AcAeEditorObj
 90
     1024
 91
        0
280
     1
281
     0
  0
CLASS
  1
ACDB_DYNAMICBLOCKPURGEPREVENTER_VERSION
  2
AcDbDynamicBlockPurgePreventer
  3
ObjectDBX Classes
 90
     1153
 91
        0
280
     0
281
     0
  0
CLASS
  1
HELIX
  2
AcDbHelix
  3
ObjectDBX Classes
 90
     4095
 91
        0
280
     0
281
     1
  0
CLASS
  1
MULTILEADER
  2
AcDbMLeader
  3
ACDB_MLEADER_CLASS
 90
     1025
 91
        5
280
     0
281
     1
  0
CLASS
  1
ACMDIMBREAKPERSREACTOR
  2
AcmDimBreakPersReactor
  3
amgDimApp().moduleName()
 90
     1023
 91
        0
280
     1
281
     0
  0
CLASS
  1
ACDB_MTEXTOBJECTCONTEXTDATA_CLASS
  2
AcDbMTextObjectContextData
  3
ObjectDBX Classes
 90
     1153
 91
        0
280
     0
281
     0
  0
CLASS
  1
BREAKDATA
  2
AcDbBreakData
  3
ObjectDBX Classes
 90
     1024
 91
        0
280
     0
281
     0
  0
CLASS
  1
EXACXREFPANELOBJECT
  2
ExAcXREFPanelObject
  3
EXAC_ESW
 90
     1025
 91
        0
280
     1
281
     0
  0
CLASS
  1
ACDBSECTIONVIEWSTYLE
  2
AcDbSectionViewStyle
  3
ObjectDBX Classes
 90
     1025
 91
        2
280
     0
281
     0
  0
CLASS
  1
ACDBDETAILVIEWSTYLE
  2
AcDbDetailViewStyle
  3
ObjectDBX Classes
 90
     1025
 91
        2
280
     0
281
     0
  0
CLASS
  1
ACDBASSOCACTION
  2
AcDbAssocAction
  3
ObjectDBX Classes
 90
     1025
 91
        0
280
     0
281
     0
  0
CLASS
  1
ACDBASSOCARRAYACTIONBODY
  2
AcDbAssocArrayActionBody
  3
ObjectDBX Classes
 90
     1025
 91
        0
280
     0
281
     0
  0
CLASS
  1
ACDBASSOCDEPENDENCY
  2
AcDbAssocDependency
  3
ObjectDBX Classes
 90
     1025
 91
        0
280
     0
281
     0
  0
CLASS
  1
ACDBASSOCVERTEXACTIONPARAM
  2
AcDbAssocVertexActionParam
  3
ObjectDBX Classes
 90
     1025
 91
        0
280
     0
281
     0
  0
CLASS
  1
ACDBASSOCARRAYPOLARPARAMETERS
  2
AcDbAssocArrayPolarParameters
  3
ObjectDBX Classes
 90
     1025
 91
        0
280
     0
281
     0
  0
CLASS
  1
ACDBASSOCNETWORK
  2
AcDbAssocNetwork
  3
ObjectDBX Classes
 90
     1025
 91
        0
280
     0
281
     0
  0
CLASS
  1
ACARRAYJIGENTITY
  2
AcArrayJigEntity
  3
ACAD_ARRAY
 90
      129
 91
        0
280
     0
281
     1
  0
ENDSEC
  0
SECTION
  2
TABLES
  0
TABLE
  2
VPORT
  5
2C
102
{ACAD_XDICTIONARY
360
31
102
}
330
0
100
AcDbSymbolTable
 70
     1
  0
VPORT
  5
2D
330
2C
100
AcDbSymbolTableRecord
100
AcDbViewportTableRecord
  2
*Active
 70
     0
 10
0.0
 20
0.0
 11
1.0
 21
1.0
 12
137.8936499001165
 22
96.39081047441823
 13
0.0
 23
0.0
 14
2.0
 24
2.0
 15
2.0
 25
2.0
 16
0.0
 26
0.0
 36
1.0
 17
0.0
 27
0.0
 37
0.0
 40
200.0314104409906
 41
2.15871121718377
 42
50.0
 43
0.0
 44
0.0
 50
0.0
 51
0.0
 71
     0
 72
  1000
 73
     1
 74
     3
 75
     0
 76
     0
 77
     0
 78
     1
281
     0
 65
     1
110
0.0
120
0.0
130
0.0
111
1.0
121
0.0
131
0.0
112
0.0
122
1.0
132
0.0
 79
     0
146
0.0
348
2E
 60
     3
 61
     5
292
     1
282
     1
141
0.0
142
0.0
 63
   250
421
  3355443
1001
ACAD_NAV_VCDISPLAY
1070
     3
  0
ENDTAB
  0
TABLE
  2
LTYPE
  5
27
330
0
100
AcDbSymbolTable
 70
     2
  0
LTYPE
  5
28
330
27
100
AcDbSymbolTableRecord
100
AcDbLinetypeTableRecord
  2
ByBlock
 70
     0
  3

 72
    65
 73
     0
 40
0.0
  0
LTYPE
  5
29
330
27
100
AcDbSymbolTableRecord
100
AcDbLinetypeTableRecord
  2
ByLayer
 70
     0
  3

 72
    65
 73
     0
 40
0.0
  0
LTYPE
  5
14
330
27
100
AcDbSymbolTableRecord
100
AcDbLinetypeTableRecord
  2
Continuous
 70
     0
  3
Solid line
 72
    65
 73
     0
 40
0.0
  0
LTYPE
  5
36DF9
330
27
100
AcDbSymbolTableRecord
100
AcDbLinetypeTableRecord
  2
CENTER2
 70
     0
  3
Center (.5x) ___ _ ___ _ ___ _ ___ _ ___ _ ___
 72
    65
 73
     4
 40
1.125
 49
0.75
 74
     0
 49
-0.125
 74
     0
 49
0.125
 74
     0
 49
-0.125
 74
     0
  0
ENDTAB
  0
TABLE
  2
LAYER
  5
21
102
{ACAD_XDICTIONARY
360
22
102
}
330
0
100
AcDbSymbolTable
 70
     9
  0
LAYER
  5
6
102
{ACAD_XDICTIONARY
360
7
102
}
330
21
100
AcDbSymbolTableRecord
100
AcDbLayerTableRecord
  2
0
 70
     0
 62
     7
  6
Continuous
370
    -3
390
9
347
C
348
0
  0
LAYER
  5
1A4
330
21
100
AcDbSymbolTableRecord
100
AcDbLayerTableRecord
  2
DEFPOINTS
 70
     0
 62
     7
  6
Continuous
290
     0
370
    -3
390
9
347
C
348
0
  0
LAYER
  5
283CB
330
21
100
AcDbSymbolTableRecord
100
AcDbLayerTableRecord
  2
Layer 1
 70
     0
 62
     7
  6
Continuous
370
     0
390
9
347
C
348
0
  0
LAYER
  5
36DFC
330
21
100
AcDbSymbolTableRecord
100
AcDbLayerTableRecord
  2
06-D06-75
 70
     0
 62
     7
  6
Continuous
370
    -3
390
9
347
C
348
0
1001
AcAecLayerStandard
1000

1000

  0
LAYER
  5
36DFD
330
21
100
AcDbSymbolTableRecord
100
AcDbLayerTableRecord
  2
26-D06-105
 70
     0
 62
     7
  6
Continuous
370
    -3
390
9
347
C
348
0
1001
AcAecLayerStandard
1000

1000

  0
LAYER
  5
36DFE
330
21
100
AcDbSymbolTableRecord
100
AcDbLayerTableRecord
  2
32-D12-105
 70
     0
 62
     7
  6
Continuous
370
    -3
390
9
347
C
348
0
1001
AcAecLayerStandard
1000

1000

  0
LAYER
  5
36DFF
330
21
100
AcDbSymbolTableRecord
100
AcDbLayerTableRecord
  2
28-D08-105
 70
     0
 62
     7
  6
Continuous
370
    -3
390
9
347
C
348
0
1001
AcAecLayerStandard
1000

1000

  0
LAYER
  5
36E00
330
21
100
AcDbSymbolTableRecord
100
AcDbLayerTableRecord
  2
30-D10-105
 70
     0
 62
     7
  6
Continuous
370
    -3
390
9
347
C
348
0
1001
AcAecLayerStandard
1000

1000

  0
LAYER
  5
36E01
330
21
100
AcDbSymbolTableRecord
100
AcDbLayerTableRecord
  2
36-D16-105
 70
     0
 62
     7
  6
Continuous
370
    -3
390
9
347
C
348
0
1001
AcAecLayerStandard
1000

1000

  0
ENDTAB
  0
TABLE
  2
STYLE
  5
24
330
0
100
AcDbSymbolTable
 70
     4
  0
STYLE
  5
25
330
24
100
AcDbSymbolTableRecord
100
AcDbTextStyleTableRecord
  2
Standard
 70
     0
 40
3.0
 41
1.0
 50
0.0
 71
     0
 42
3.0
  3
isocp.shx
  4
whgtxt.shx
  0
STYLE
  5
35
330
24
100
AcDbSymbolTableRecord
100
AcDbTextStyleTableRecord
  2
ROMANS
 70
     0
 40
2.5
 41
1.0
 50
0.0
 71
     0
 42
2.5
  3
romans.shx
  4

  0
STYLE
  5
5C
330
24
100
AcDbSymbolTableRecord
100
AcDbTextStyleTableRecord
  2
굴림
 70
     0
 40
3.0
 41
1.0
 50
0.0
 71
     0
 42
3.0
  3

  4

1001
ACAD
1000
Gulim
1071
    33074
  0
ENDTAB
  0
TABLE
  2
VIEW
  5
2A
330
0
100
AcDbSymbolTable
 70
     0
  0
ENDTAB
  0
TABLE
  2
UCS
  5
2B
330
0
100
AcDbSymbolTable
 70
     0
  0
ENDTAB
  0
TABLE
  2
APPID
  5
32
330
0
100
AcDbSymbolTable
 70
    45
  0
APPID
  5
13
330
32
100
AcDbSymbolTableRecord
100
AcDbRegAppTableRecord
  2
ACAD
 70
     0
  0
APPID
  5
1A
330
32
100
AcDbSymbolTableRecord
100
AcDbRegAppTableRecord
  2
ACAD_PSEXT
 70
     0
  0
APPID
  5
37
330
32
100
AcDbSymbolTableRecord
100
AcDbRegAppTableRecord
  2
ACAD_DSTYLE_DIMJAG
 70
     0
  0
APPID
  5
38
330
32
100
AcDbSymbolTableRecord
100
AcDbRegAppTableRecord
  2
ACAD_DSTYLE_DIMTALN
 70
     0
  0
APPID
  5
36
330
32
100
AcDbSymbolTableRecord
100
AcDbRegAppTableRecord
  2
ACAD_DSTYLE_DIMJOGGED_JOGANGLE_SYMBOL
 70
     0
  0
APPID
  5
183
330
32
100
AcDbSymbolTableRecord
100
AcDbRegAppTableRecord
  2
AcAecLayerStandard
 70
     0
  0
APPID
  5
3DE
330
32
100
AcDbSymbolTableRecord
100
AcDbRegAppTableRecord
  2
ACAD_DSTYLE_DIMRADIAL_EXTENSION
 70
     0
  0
APPID
  5
530
330
32
100
AcDbSymbolTableRecord
100
AcDbRegAppTableRecord
  2
GRADIENTCOLOR1ACI
 70
     0
  0
APPID
  5
531
330
32
100
AcDbSymbolTableRecord
100
AcDbRegAppTableRecord
  2
GRADIENTCOLOR2ACI
 70
     0
  0
APPID
  5
30
330
32
100
AcDbSymbolTableRecord
100
AcDbRegAppTableRecord
  2
ACAD_NAV_VCDISPLAY
 70
     0
  0
APPID
  5
C34
330
32
100
AcDbSymbolTableRecord
100
AcDbRegAppTableRecord
  2
ACAD_MLEADERVER
 70
     0
  0
APPID
  5
C97
330
32
100
AcDbSymbolTableRecord
100
AcDbRegAppTableRecord
  2
ACAD_EXEMPT_FROM_CAD_STANDARDS
 70
     0
  0
APPID
  5
D79
330
32
100
AcDbSymbolTableRecord
100
AcDbRegAppTableRecord
  2
AcadAnnoMonitorAlertIconDisabled
 70
     0
  0
APPID
  5
1A45
330
32
100
AcDbSymbolTableRecord
100
AcDbRegAppTableRecord
  2
GENIUS_GENODEF_13
 70
     0
  0
APPID
  5
1A46
330
32
100
AcDbSymbolTableRecord
100
AcDbRegAppTableRecord
  2
GENIUS_GENOBJ-N-FIL_13
 70
     0
  0
APPID
  5
1A47
330
32
100
AcDbSymbolTableRecord
100
AcDbRegAppTableRecord
  2
ACAD_DSTYLE_DIMBREAK
 70
     0
  0
APPID
  5
1A48
330
32
100
AcDbSymbolTableRecord
100
AcDbRegAppTableRecord
  2
GENIUS_GENOBJ-N-HTC_13
 70
     0
  0
APPID
  5
1A49
330
32
100
AcDbSymbolTableRecord
100
AcDbRegAppTableRecord
  2
GENIUS_GENHATCH_13
 70
     0
  0
APPID
  5
1A4A
330
32
100
AcDbSymbolTableRecord
100
AcDbRegAppTableRecord
  2
GENIUS_GENREC_14
 70
     0
  0
APPID
  5
1A4B
330
32
100
AcDbSymbolTableRecord
100
AcDbRegAppTableRecord
  2
GENIUS_GENOBJ-N-REC_13
 70
     0
  0
APPID
  5
1A4C
330
32
100
AcDbSymbolTableRecord
100
AcDbRegAppTableRecord
  2
ACAUTHENVIRON
 70
     0
  0
APPID
  5
1A4D
330
32
100
AcDbSymbolTableRecord
100
AcDbRegAppTableRecord
  2
AcDbDynamicBlockTrueName
 70
     0
  0
APPID
  5
1A4E
330
32
100
AcDbSymbolTableRecord
100
AcDbRegAppTableRecord
  2
AcDbDynamicBlockGUID
 70
     0
  0
APPID
  5
1A4F
330
32
100
AcDbSymbolTableRecord
100
AcDbRegAppTableRecord
  2
AcDbBlockRepETag
 70
     0
  0
APPID
  5
1A50
330
32
100
AcDbSymbolTableRecord
100
AcDbRegAppTableRecord
  2
DCO15
 70
     0
  0
APPID
  5
1A51
330
32
100
AcDbSymbolTableRecord
100
AcDbRegAppTableRecord
  2
ACAD_DSTYLE_DIMTEXT_FILL
 70
     0
  0
APPID
  5
1A52
330
32
100
AcDbSymbolTableRecord
100
AcDbRegAppTableRecord
  2
ACAD_DSTYLE_DIM_LINETYPE
 70
     0
  0
APPID
  5
1A53
330
32
100
AcDbSymbolTableRecord
100
AcDbRegAppTableRecord
  2
ACAD_DSTYLE_DIM_EXT1_LINETYPE
 70
     0
  0
APPID
  5
1A54
330
32
100
AcDbSymbolTableRecord
100
AcDbRegAppTableRecord
  2
ACAD_DSTYLE_DIM_EXT2_LINETYPE
 70
     0
  0
APPID
  5
1A55
330
32
100
AcDbSymbolTableRecord
100
AcDbRegAppTableRecord
  2
ACAD_DSTYLE_DIMINSPECT
 70
     0
  0
APPID
  5
1A56
330
32
100
AcDbSymbolTableRecord
100
AcDbRegAppTableRecord
  2
AcadAnnotative
 70
     0
  0
APPID
  5
1A57
330
32
100
AcDbSymbolTableRecord
100
AcDbRegAppTableRecord
  2
GENIUS_GENDTOL_13
 70
     0
  0
APPID
  5
1A58
330
32
100
AcDbSymbolTableRecord
100
AcDbRegAppTableRecord
  2
GENIUS_GENFIL_13
 70
     0
  0
APPID
  5
1A59
330
32
100
AcDbSymbolTableRecord
100
AcDbRegAppTableRecord
  2
GENIUS_GENOBJ-N-CHA_13
 70
     0
  0
APPID
  5
1A5A
330
32
100
AcDbSymbolTableRecord
100
AcDbRegAppTableRecord
  2
AcadAnnotativeDecomposition
 70
     0
  0
APPID
  5
1A5B
330
32
100
AcDbSymbolTableRecord
100
AcDbRegAppTableRecord
  2
MCAD_NO_VIS
 70
     0
  0
APPID
  5
1A5C
330
32
100
AcDbSymbolTableRecord
100
AcDbRegAppTableRecord
  2
ACAD_TEMP_GRAPHIC
 70
     0
  0
APPID
  5
1A5D
330
32
100
AcDbSymbolTableRecord
100
AcDbRegAppTableRecord
  2
ACATTRIBSERVICES
 70
     0
  0
APPID
  5
1A5E
330
32
100
AcDbSymbolTableRecord
100
AcDbRegAppTableRecord
  2
DESIGNERASSEMBLIES
 70
     0
  0
APPID
  5
1A5F
330
32
100
AcDbSymbolTableRecord
100
AcDbRegAppTableRecord
  2
GENIUS_GENDIMSH_14
 70
     0
  0
APPID
  5
1A60
330
32
100
AcDbSymbolTableRecord
100
AcDbRegAppTableRecord
  2
ACAD_DSTYLE_DIMARC_LENGTH_SYMBOL
 70
     0
  0
APPID
  5
1A61
330
32
100
AcDbSymbolTableRecord
100
AcDbRegAppTableRecord
  2
ACAD_SPLINE_DATA
 70
     0
  0
APPID
  5
1A62
330
32
100
AcDbSymbolTableRecord
100
AcDbRegAppTableRecord
  2
GENIUS_GENOREF_13
 70
     0
  0
APPID
  5
1A63
330
32
100
AcDbSymbolTableRecord
100
AcDbRegAppTableRecord
  2
ACAD_DSTYLE_DIMANGULAR_EXTENSION
 70
     0
  0
APPID
  5
318CC
330
32
100
AcDbSymbolTableRecord
100
AcDbRegAppTableRecord
  2
HATCHBACKGROUNDCOLOR
 70
     0
  0
ENDTAB
  0
TABLE
  2
DIMSTYLE
  5
33
330
0
100
AcDbSymbolTable
 70
     3
100
AcDbDimStyleTable
 71
     1
340
34
  0
DIMSTYLE
105
34
330
33
100
AcDbSymbolTableRecord
100
AcDbDimStyleTableRecord
  2
Standard
 70
     0
 41
2.5
 73
     0
 77
     3
 78
     8
140
2.5
141
-1.0
147
1.0
175
     1
176
     3
177
     3
178
     2
179
     8
271
     8
272
     8
275
     1
340
35
1001
ACAD_DSTYLE_DIMJOGGED_JOGANGLE_SYMBOL
1070
   384
1040
0.7853981633974483
1001
ACAD_DSTYLE_DIMJAG
1070
   388
1040
1.5
1001
ACAD_DSTYLE_DIMTALN
1070
   392
1070
     0
  0
DIMSTYLE
105
1A8
102
{ACAD_REACTORS
330
37320
330
39003
330
39005
330
39006
330
39007
330
39040
330
397DD
102
}
330
33
100
AcDbSymbolTableRecord
100
AcDbDimStyleTableRecord
  2
Standard$0
 70
     0
 41
2.5
 73
     0
 77
     3
 78
     8
140
2.5
141
-1.0
147
1.0
175
     1
176
     3
177
     3
178
     2
179
     8
271
     8
272
     8
275
     1
340
35
  0
ENDTAB
  0
TABLE
  2
BLOCK_RECORD
  5
1
330
0
100
AcDbSymbolTable
 70
     8
  0
BLOCK_RECORD
  5
2
102
{ACAD_XDICTIONARY
360
3
102
}
330
1
100
AcDbSymbolTableRecord
100
AcDbBlockTableRecord
  2
*Model_Space
340
16
 70
     0
280
     1
281
     0
  0
BLOCK_RECORD
  5
1B
330
1
100
AcDbSymbolTableRecord
100
AcDbBlockTableRecord
  2
*Paper_Space
340
1E
 70
     0
280
     1
281
     0
  0
BLOCK_RECORD
  5
373A6
330
1
100
AcDbSymbolTableRecord
100
AcDbBlockTableRecord
  2
*D0
340
0
 70
     0
280
     1
281
     0
  0
BLOCK_RECORD
  5
3905A
330
1
100
AcDbSymbolTableRecord
100
AcDbBlockTableRecord
  2
*D1
340
0
 70
     0
280
     1
281
     0
  0
BLOCK_RECORD
  5
39066
330
1
100
AcDbSymbolTableRecord
100
AcDbBlockTableRecord
  2
*D2
340
0
 70
     0
280
     1
281
     0
  0
BLOCK_RECORD
  5
39070
330
1
100
AcDbSymbolTableRecord
100
AcDbBlockTableRecord
  2
*D3
340
0
 70
     0
280
     1
281
     0
  0
BLOCK_RECORD
  5
3910A
330
1
100
AcDbSymbolTableRecord
100
AcDbBlockTableRecord
  2
*D4
340
0
 70
     0
280
     1
281
     0
  0
BLOCK_RECORD
  5
39155
330
1
100
AcDbSymbolTableRecord
100
AcDbBlockTableRecord
  2
*D5
340
0
 70
     0
280
     1
281
     0
  0
BLOCK_RECORD
  5
398A3
330
1
100
AcDbSymbolTableRecord
100
AcDbBlockTableRecord
  2
*D6
340
0
 70
     0
280
     1
281
     0
  0
ENDTAB
  0
ENDSEC
  0
SECTION
  2
BLOCKS
  0
BLOCK
  5
5
330
2
100
AcDbEntity
  8
0
100
AcDbBlockBegin
  2
*Model_Space
 70
     0
 10
0.0
 20
0.0
 30
0.0
  3
*Model_Space
  1

  0
ENDBLK
  5
15
330
2
100
AcDbEntity
  8
0
100
AcDbBlockEnd
  0
BLOCK
  5
1C
330
1B
100
AcDbEntity
 67
     1
  8
0
100
AcDbBlockBegin
  2
*Paper_Space
 70
     0
 10
0.0
 20
0.0
 30
0.0
  3
*Paper_Space
  1

  0
ENDBLK
  5
1D
330
1B
100
AcDbEntity
 67
     1
  8
0
100
AcDbBlockEnd
  0
BLOCK
  5
373A7
330
373A6
100
AcDbEntity
  8
0
 62
     7
100
AcDbBlockBegin
  2
*D0
 70
     1
 10
0.0
 20
0.0
 30
0.0
  3
*D0
  1

  0
LINE
  5
39CEA
330
373A6
100
AcDbEntity
  8
0
  6
Continuous
 62
     3
440
 16777216
100
AcDbLine
 10
73.40288526638494
 20
77.84888441365319
 30
0.0
 11
61.22131888208777
 21
77.84888441365319
 31
0.0
  0
LINE
  5
39CEB
330
373A6
100
AcDbEntity
  8
0
  6
Continuous
 62
     3
440
 16777216
100
AcDbLine
 10
62.47131888208777
 20
80.34888441365319
 30
0.0
 11
62.47131888208777
 21
96.99858913806174
 31
0.0
  0
SOLID
  5
39CEC
330
373A6
100
AcDbEntity
  8
0
  6
Continuous
 62
     3
440
 16777216
100
AcDbTrace
 10
62.05465221542111
 20
80.34888441365319
 30
0.0
 11
62.88798554875444
 21
80.34888441365319
 31
0.0
 12
62.47131888208777
 22
77.84888441365319
 32
0.0
 13
62.47131888208777
 23
77.84888441365319
 33
0.0
  0
MTEXT
  5
39CED
330
373A6
100
AcDbEntity
  8
0
  6
Continuous
 62
     2
440
 16777216
100
AcDbMText
 10
60.34631888208775
 20
91.42358913806175
 30
0.0
 40
3.0
 41
0.0
 46
0.0
 71
     5
 72
     1
  1
%%c1.551
 11
0.0000000000000001
 21
1.0
 31
0.0
 73
     1
 44
1.0
  0
POINT
  5
39CEE
330
373A6
100
AcDbEntity
  8
DEFPOINTS
  6
Continuous
 62
     0
440
 16777216
100
AcDbPoint
 10
74.02788526638494
 20
117.3488844136532
 30
0.0
  0
POINT
  5
39CEF
330
373A6
100
AcDbEntity
  8
DEFPOINTS
  6
Continuous
 62
     0
440
 16777216
100
AcDbPoint
 10
74.02788526638494
 20
77.84888441365319
 30
0.0
  0
POINT
  5
39CF0
330
373A6
100
AcDbEntity
  8
DEFPOINTS
  6
Continuous
 62
     0
440
 16777216
100
AcDbPoint
 10
62.47131888208777
 20
77.84888441365319
 30
0.0
  0
ENDBLK
  5
373A8
330
373A6
100
AcDbEntity
  8
0
 62
     7
100
AcDbBlockEnd
  0
BLOCK
  5
3905B
330
3905A
100
AcDbEntity
  8
0
 62
     7
100
AcDbBlockBegin
  2
*D1
 70
     1
 10
0.0
 20
0.0
 30
0.0
  3
*D1
  1

  0
LINE
  5
39CF1
330
3905A
100
AcDbEntity
  8
0
  6
Continuous
 62
     3
440
 16777216
100
AcDbLine
 10
175.2528852663849
 20
113.0928844136519
 30
0.0
 11
206.7839083343706
 21
113.0928844136519
 31
0.0
  0
LINE
  5
39CF2
330
3905A
100
AcDbEntity
  8
0
  6
Continuous
 62
     3
440
 16777216
100
AcDbLine
 10
175.2528852663858
 20
82.1048844136526
 30
0.0
 11
206.7839083343706
 21
82.1048844136526
 31
0.0
  0
LINE
  5
39CF3
330
3905A
100
AcDbEntity
  8
0
  6
Continuous
 62
     3
440
 16777216
100
AcDbLine
 10
205.5339083343706
 20
110.592884413652
 30
0.0
 11
205.5339083343706
 21
84.6048844136526
 31
0.0
  0
SOLID
  5
39CF4
330
3905A
100
AcDbEntity
  8
0
  6
Continuous
 62
     3
440
 16777216
100
AcDbTrace
 10
205.117241667704
 20
110.592884413652
 30
0.0
 11
205.9505750010373
 21
110.592884413652
 31
0.0
 12
205.5339083343706
 22
113.0928844136519
 32
0.0
 13
205.5339083343706
 23
113.0928844136519
 33
0.0
  0
SOLID
  5
39CF5
330
3905A
100
AcDbEntity
  8
0
  6
Continuous
 62
     3
440
 16777216
100
AcDbTrace
 10
205.117241667704
 20
84.6048844136526
 30
0.0
 11
205.9505750010373
 21
84.6048844136526
 31
0.0
 12
205.5339083343706
 22
82.1048844136526
 32
0.0
 13
205.5339083343706
 23
82.1048844136526
 33
0.0
  0
MTEXT
  5
39CF6
330
3905A
100
AcDbEntity
  8
0
  6
Continuous
 62
     2
440
 16777216
100
AcDbMText
 10
203.40861305878
 20
97.59888441365232
 30
0.0
 40
3.0
 41
0.0
 46
0.0
 71
     5
 72
     1
  1
%%C1.22
 11
0.0000000000000001
 21
1.0
 31
0.0
 73
     1
 44
1.0
  0
POINT
  5
39CF7
330
3905A
100
AcDbEntity
  8
DEFPOINTS
  6
Continuous
 62
     0
440
 16777216
100
AcDbPoint
 10
174.6278852663849
 20
113.0928844136519
 30
0.0
  0
POINT
  5
39CF8
330
3905A
100
AcDbEntity
  8
DEFPOINTS
  6
Continuous
 62
     0
440
 16777216
100
AcDbPoint
 10
174.6278852663859
 20
82.1048844136526
 30
0.0
  0
POINT
  5
39CF9
330
3905A
100
AcDbEntity
  8
DEFPOINTS
  6
Continuous
 62
     0
440
 16777216
100
AcDbPoint
 10
205.5339083343706
 20
82.1048844136526
 30
0.0
  0
ENDBLK
  5
3905C
330
3905A
100
AcDbEntity
  8
0
 62
     7
100
AcDbBlockEnd
  0
BLOCK
  5
39067
330
39066
100
AcDbEntity
  8
0
 62
     7
100
AcDbBlockBegin
  2
*D2
 70
     1
 10
0.0
 20
0.0
 30
0.0
  3
*D2
  1

  0
LINE
  5
39CFA
330
39066
100
AcDbEntity
  8
0
  6
Continuous
 62
     3
440
 16777216
100
AcDbLine
 10
174.7528852663849
 20
106.0988844136532
 30
0.0
 11
198.783908334362
 21
106.0988844136532
 31
0.0
  0
LINE
  5
39CFB
330
39066
100
AcDbEntity
  8
0
  6
Continuous
 62
     3
440
 16777216
100
AcDbLine
 10
197.533908334362
 20
103.5988844136532
 30
0.0
 11
197.533908334362
 21
84.32529325213009
 31
0.0
  0
SOLID
  5
39CFC
330
39066
100
AcDbEntity
  8
0
  6
Continuous
 62
     3
440
 16777216
100
AcDbTrace
 10
197.1172416676953
 20
103.5988844136532
 30
0.0
 11
197.9505750010286
 21
103.5988844136532
 31
0.0
 12
197.533908334362
 22
106.0988844136532
 32
0.0
 13
197.533908334362
 23
106.0988844136532
 33
0.0
  0
MTEXT
  5
39CFD
330
39066
100
AcDbEntity
  8
0
  6
Continuous
 62
     2
440
 16777216
100
AcDbMText
 10
194.58109671461
 20
94.27982443458722
 30
0.0
 40
3.0
 41
0.0
 46
0.0
 71
     5
 72
     1
  1
%%C17{\H2.100000;\S+0.005^ -0.003;}{\H1x;mm}
 11
0.0000000000000001
 21
1.0
 31
0.0
 73
     1
 44
1.0
  0
POINT
  5
39CFE
330
39066
100
AcDbEntity
  8
DEFPOINTS
  6
Continuous
 62
     0
440
 16777216
100
AcDbPoint
 10
174.1278852663849
 20
89.09888441365229
 30
0.0
  0
POINT
  5
39CFF
330
39066
100
AcDbEntity
  8
DEFPOINTS
  6
Continuous
 62
     0
440
 16777216
100
AcDbPoint
 10
174.1278852663849
 20
106.0988844136532
 30
0.0
  0
POINT
  5
39D00
330
39066
100
AcDbEntity
  8
DEFPOINTS
  6
Continuous
 62
     0
440
 16777216
100
AcDbPoint
 10
197.533908334362
 20
106.0988844136532
 30
0.0
  0
ENDBLK
  5
39068
330
39066
100
AcDbEntity
  8
0
 62
     7
100
AcDbBlockEnd
  0
BLOCK
  5
39071
330
39070
100
AcDbEntity
  8
0
 62
     7
100
AcDbBlockBegin
  2
*D3
 70
     1
 10
0.0
 20
0.0
 30
0.0
  3
*D3
  1

  0
LINE
  5
39D0A
330
39070
100
AcDbEntity
  8
0
  6
Continuous
 62
     3
440
 16777216
100
AcDbLine
 10
164.9678852663851
 20
106.8508844136527
 30
0.0
 11
164.9678852663851
 21
129.3972784847616
 31
0.0
  0
LINE
  5
39D0B
330
39070
100
AcDbEntity
  8
0
  6
Continuous
 62
     3
440
 16777216
100
AcDbLine
 10
175.1278852663849
 20
113.2178844136519
 30
0.0
 11
175.1278852663849
 21
129.3972784847616
 31
0.0
  0
LINE
  5
39D0C
330
39070
100
AcDbEntity
  8
0
  6
Continuous
 62
     3
440
 16777216
100
AcDbLine
 10
167.4678852663851
 20
128.1472784847616
 30
0.0
 11
172.6278852663849
 21
128.1472784847616
 31
0.0
  0
SOLID
  5
39D0D
330
39070
100
AcDbEntity
  8
0
  6
Continuous
 62
     3
440
 16777216
100
AcDbTrace
 10
167.4678852663851
 20
128.5639451514283
 30
0.0
 11
167.4678852663851
 21
127.7306118180949
 31
0.0
 12
164.9678852663851
 22
128.1472784847616
 32
0.0
 13
164.9678852663851
 23
128.1472784847616
 33
0.0
  0
SOLID
  5
39D0E
330
39070
100
AcDbEntity
  8
0
  6
Continuous
 62
     3
440
 16777216
100
AcDbTrace
 10
172.6278852663849
 20
128.5639451514283
 30
0.0
 11
172.6278852663849
 21
127.7306118180949
 31
0.0
 12
175.1278852663849
 22
128.1472784847616
 32
0.0
 13
175.1278852663849
 23
128.1472784847616
 33
0.0
  0
MTEXT
  5
39D0F
330
39070
100
AcDbEntity
  8
0
  6
Continuous
 62
     2
440
 16777216
100
AcDbMText
 10
170.047885266385
 20
130.2722784847616
 30
0.0
 40
3.0
 41
0.0
 46
0.0
 71
     5
 72
     1
  1
.4
 73
     1
 44
1.0
  0
POINT
  5
39D10
330
39070
100
AcDbEntity
  8
DEFPOINTS
  6
Continuous
 62
     0
440
 16777216
100
AcDbPoint
 10
164.9678852663851
 20
106.2258844136527
 30
0.0
  0
POINT
  5
39D11
330
39070
100
AcDbEntity
  8
DEFPOINTS
  6
Continuous
 62
     0
440
 16777216
100
AcDbPoint
 10
175.1278852663849
 20
112.592884413652
 30
0.0
  0
POINT
  5
39D12
330
39070
100
AcDbEntity
  8
DEFPOINTS
  6
Continuous
 62
     0
440
 16777216
100
AcDbPoint
 10
175.1278852663849
 20
128.1472784847616
 30
0.0
  0
ENDBLK
  5
39072
330
39070
100
AcDbEntity
  8
0
 62
     7
100
AcDbBlockEnd
  0
BLOCK
  5
3910B
330
3910A
100
AcDbEntity
  8
0
 62
     7
100
AcDbBlockBegin
  2
*D4
 70
     1
 10
0.0
 20
0.0
 30
0.0
  3
*D4
  1

  0
LINE
  5
39D01
330
3910A
100
AcDbEntity
  8
0
  6
Continuous
 62
     3
440
 16777216
100
AcDbLine
 10
147.1278852663849
 20
106.2238844136514
 30
0.0
 11
147.1278852663849
 21
135.2722784847616
 31
0.0
  0
LINE
  5
39D02
330
3910A
100
AcDbEntity
  8
0
  6
Continuous
 62
     3
440
 16777216
100
AcDbLine
 10
175.1278852663849
 20
113.2178844136519
 30
0.0
 11
175.1278852663849
 21
135.2722784847616
 31
0.0
  0
LINE
  5
39D03
330
3910A
100
AcDbEntity
  8
0
  6
Continuous
 62
     3
440
 16777216
100
AcDbLine
 10
149.6278852663849
 20
134.0222784847616
 30
0.0
 11
172.6278852663849
 21
134.0222784847616
 31
0.0
  0
SOLID
  5
39D04
330
3910A
100
AcDbEntity
  8
0
  6
Continuous
 62
     3
440
 16777216
100
AcDbTrace
 10
149.6278852663849
 20
134.4389451514282
 30
0.0
 11
149.6278852663849
 21
133.6056118180949
 31
0.0
 12
147.1278852663849
 22
134.0222784847616
 32
0.0
 13
147.1278852663849
 23
134.0222784847616
 33
0.0
  0
SOLID
  5
39D05
330
3910A
100
AcDbEntity
  8
0
  6
Continuous
 62
     3
440
 16777216
100
AcDbTrace
 10
172.6278852663849
 20
134.4389451514282
 30
0.0
 11
172.6278852663849
 21
133.6056118180949
 31
0.0
 12
175.1278852663849
 22
134.0222784847616
 32
0.0
 13
175.1278852663849
 23
134.0222784847616
 33
0.0
  0
MTEXT
  5
39D06
330
3910A
100
AcDbEntity
  8
0
  6
Continuous
 62
     2
440
 16777216
100
AcDbMText
 10
161.127885266385
 20
136.1472784847616
 30
0.0
 40
3.0
 41
0.0
 46
0.0
 71
     5
 72
     1
  1
1.1min
 73
     1
 44
1.0
  0
POINT
  5
39D07
330
3910A
100
AcDbEntity
  8
DEFPOINTS
  6
Continuous
 62
     0
440
 16777216
100
AcDbPoint
 10
147.1278852663849
 20
105.5988844136513
 30
0.0
  0
POINT
  5
39D08
330
3910A
100
AcDbEntity
  8
DEFPOINTS
  6
Continuous
 62
     0
440
 16777216
100
AcDbPoint
 10
175.1278852663849
 20
112.592884413652
 30
0.0
  0
POINT
  5
39D09
330
3910A
100
AcDbEntity
  8
DEFPOINTS
  6
Continuous
 62
     0
440
 16777216
100
AcDbPoint
 10
175.1278852663849
 20
134.0222784847616
 30
0.0
  0
ENDBLK
  5
3910C
330
3910A
100
AcDbEntity
  8
0
 62
     7
100
AcDbBlockEnd
  0
BLOCK
  5
39156
330
39155
100
AcDbEntity
  8
0
 62
     7
100
AcDbBlockBegin
  2
*D5
 70
     1
 10
0.0
 20
0.0
 30
0.0
  3
*D5
  1

  0
LINE
  5
39D13
330
39155
100
AcDbEntity
  8
0
  6
Continuous
 62
     3
440
 16777216
100
AcDbLine
 10
228.6326241148204
 20
90.97960549538811
 30
0.0
 11
228.6326241148204
 21
69.48459583370777
 31
0.0
  0
LINE
  5
39D14
330
39155
100
AcDbEntity
  8
0
  6
Continuous
 62
     3
440
 16777216
100
AcDbLine
 10
257.2076241148203
 20
90.97960549538811
 30
0.0
 11
257.2076241148203
 21
69.48459583370777
 31
0.0
  0
LINE
  5
39D15
330
39155
100
AcDbEntity
  8
0
  6
Continuous
 62
     3
440
 16777216
100
AcDbLine
 10
231.1326241148204
 20
70.73459583370777
 30
0.0
 11
254.7076241148203
 21
70.73459583370777
 31
0.0
  0
SOLID
  5
39D16
330
39155
100
AcDbEntity
  8
0
  6
Continuous
 62
     3
440
 16777216
100
AcDbTrace
 10
231.1326241148204
 20
71.15126250037445
 30
0.0
 11
231.1326241148204
 21
70.3179291670411
 31
0.0
 12
228.6326241148204
 22
70.73459583370777
 32
0.0
 13
228.6326241148204
 23
70.73459583370777
 33
0.0
  0
SOLID
  5
39D17
330
39155
100
AcDbEntity
  8
0
  6
Continuous
 62
     3
440
 16777216
100
AcDbTrace
 10
254.7076241148203
 20
71.15126250037445
 30
0.0
 11
254.7076241148203
 21
70.3179291670411
 31
0.0
 12
257.2076241148203
 22
70.73459583370777
 32
0.0
 13
257.2076241148203
 23
70.73459583370777
 33
0.0
  0
MTEXT
  5
39D18
330
39155
100
AcDbEntity
  8
0
  6
Continuous
 62
     2
440
 16777216
100
AcDbMText
 10
242.9201241148204
 20
72.85989110929832
 30
0.0
 40
3.0
 41
0.0
 46
0.0
 71
     5
 72
     1
  1
1.125
 73
     1
 44
1.0
  0
POINT
  5
39D19
330
39155
100
AcDbEntity
  8
DEFPOINTS
  6
Continuous
 62
     0
440
 16777216
100
AcDbPoint
 10
228.6326241148204
 20
91.60460549538811
 30
0.0
  0
POINT
  5
39D1A
330
39155
100
AcDbEntity
  8
DEFPOINTS
  6
Continuous
 62
     0
440
 16777216
100
AcDbPoint
 10
257.2076241148203
 20
91.60460549538811
 30
0.0
  0
POINT
  5
39D1B
330
39155
100
AcDbEntity
  8
DEFPOINTS
  6
Continuous
 62
     0
440
 16777216
100
AcDbPoint
 10
257.2076241148203
 20
70.73459583370777
 30
0.0
  0
ENDBLK
  5
39157
330
39155
100
AcDbEntity
  8
0
 62
     7
100
AcDbBlockEnd
  0
BLOCK
  5
398A4
330
398A3
100
AcDbEntity
  8
0
 62
     7
100
AcDbBlockBegin
  2
*D6
 70
     1
 10
0.0
 20
0.0
 30
0.0
  3
*D6
  1

  0
LINE
  5
39D1C
330
398A3
100
AcDbEntity
  8
0
  6
Continuous
 62
     3
440
 16777216
100
AcDbLine
 10
79.6528852662367
 20
79.651416168384
 30
0.0
 11
91.05483140537479
 21
76.59627390825879
 31
0.0
  0
LINE
  5
39D1D
330
398A3
100
AcDbEntity
  8
0
  6
Continuous
 62
     3
440
 16777216
100
AcDbLine
 10
89.80483140537479
 20
79.43121039879769
 30
0.0
 11
89.80483140537479
 21
94.16903802895642
 31
0.0
  0
SOLID
  5
39D1E
330
398A3
100
AcDbEntity
  8
0
  6
Continuous
 62
     3
440
 16777216
100
AcDbTrace
 10
89.38816473870813
 20
79.43121039879769
 30
0.0
 11
90.22149807204147
 21
79.43121039879769
 31
0.0
 12
89.80483140537479
 22
76.93121039879769
 32
0.0
 13
89.80483140537479
 23
76.93121039879769
 33
0.0
  0
MTEXT
  5
39D1F
330
398A3
100
AcDbEntity
  8
0
  6
Continuous
 62
     2
440
 16777216
100
AcDbMText
 10
87.67983140537479
 20
89.19285692659423
 30
0.0
 40
3.0
 41
0.0
 46
0.0
 71
     5
 72
     1
  1
%%C1.40
 11
0.0000000000000001
 21
1.0
 31
0.0
 73
     1
 44
1.0
  0
POINT
  5
39D20
330
398A3
100
AcDbEntity
  8
DEFPOINTS
  6
Continuous
 62
     0
440
 16777216
100
AcDbPoint
 10
79.0278852662367
 20
79.81888441365345
 30
0.0
  0
POINT
  5
39D21
330
398A3
100
AcDbEntity
  8
DEFPOINTS
  6
Continuous
 62
     0
440
 16777216
100
AcDbPoint
 10
79.0278852662367
 20
115.3788844136529
 30
0.0
  0
POINT
  5
39D22
330
398A3
100
AcDbEntity
  8
DEFPOINTS
  6
Continuous
 62
     0
440
 16777216
100
AcDbPoint
 10
89.80483140537481
 20
112.4912103987972
 30
0.0
  0
ENDBLK
  5
398A5
330
398A3
100
AcDbEntity
  8
0
 62
     7
100
AcDbBlockEnd
  0
ENDSEC
  0
SECTION
  2
ENTITIES
  0
LWPOLYLINE
  5
1DEB1
330
2
100
AcDbEntity
  8
0
 62
     0
100
AcDbPolyline
 90
        4
 70
     1
 43
0.0
 10
0.5
 20
0.5
 10
0.5
 20
192.2869634307123
 10
275.3311999999998
 20
192.2869634307123
 10
275.3311999999998
 20
0.5
  0
LINE
  5
28352
330
2
100
AcDbEntity
  8
0
  6
Continuous
 62
     7
100
AcDbLine
 10
206.6234
 20
-2.851599999999999
 30
0.0
 11
206.6234
 21
0.5
 31
0.0
  0
LINE
  5
28355
330
2
100
AcDbEntity
  8
0
  6
Continuous
 62
     7
100
AcDbLine
 10
69.20779999999999
 20
-2.851599999999999
 30
0.0
 11
69.20779999999999
 21
0.5
 31
0.0
  0
LINE
  5
28356
330
2
100
AcDbEntity
  8
0
  6
Continuous
 62
     7
100
AcDbLine
 10
206.6234
 20
195.6385634307123
 30
0.0
 11
206.6234
 21
192.2869634307123
 31
0.0
  0
LINE
  5
28357
330
2
100
AcDbEntity
  8
0
  6
Continuous
 62
     7
100
AcDbLine
 10
69.20779999999999
 20
195.6385634307123
 30
0.0
 11
69.20779999999999
 21
192.2869634307123
 31
0.0
  0
LINE
  5
2835B
330
2
100
AcDbEntity
  8
0
  6
Continuous
 62
     7
100
AcDbLine
 10
-2.851599999999999
 20
48.44674085767808
 30
0.0
 11
0.5
 21
48.44674085767808
 31
0.0
  0
LINE
  5
2835C
330
2
100
AcDbEntity
  8
0
  6
Continuous
 62
     7
100
AcDbLine
 10
-2.851599999999999
 20
144.3402225730342
 30
0.0
 11
0.5
 21
144.3402225730342
 31
0.0
  0
LINE
  5
2835D
330
2
100
AcDbEntity
  8
0
  6
Continuous
 62
     7
100
AcDbLine
 10
278.6827999999999
 20
48.44674085767808
 30
0.0
 11
275.3311999999998
 21
48.44674085767808
 31
0.0
  0
LINE
  5
2835E
330
2
100
AcDbEntity
  8
0
  6
Continuous
 62
     7
100
AcDbLine
 10
278.6827999999999
 20
144.3402225730342
 30
0.0
 11
275.3311999999998
 21
144.3402225730342
 31
0.0
  0
LINE
  5
28361
330
2
100
AcDbEntity
  8
0
  6
Continuous
 62
     7
100
AcDbLine
 10
203.2718
 20
0.4999999999999993
 30
0.0
 11
203.2718
 21
27.47004173244392
 31
0.0
  0
LINE
  5
28365
330
2
100
AcDbEntity
  8
0
  6
Continuous
 62
     7
100
AcDbLine
 10
275.3311999999998
 20
27.47004173244392
 30
0.0
 11
203.2718
 21
27.47004173244392
 31
0.0
  0
LINE
  5
28366
330
2
100
AcDbEntity
  8
0
  6
Continuous
 62
     7
100
AcDbLine
 10
203.2718
 20
9.490013910814644
 30
0.0
 11
275.3311999999998
 21
9.490013910814644
 31
0.0
  0
LINE
  5
28368
330
2
100
AcDbEntity
  8
0
  6
Continuous
 62
     7
100
AcDbLine
 10
203.2718
 20
18.48002782162928
 30
0.0
 11
275.3311999999998
 21
18.48002782162928
 31
0.0
  0
LINE
  5
28369
330
2
100
AcDbEntity
  8
0
  6
Continuous
 62
     7
100
AcDbLine
 10
203.2718
 20
0.4999999999999988
 30
0.0
 11
275.3311999999998
 21
0.5000000000000036
 31
0.0
  0
LINE
  5
2836B
330
2
100
AcDbEntity
  8
0
  6
Continuous
 62
     7
100
AcDbLine
 10
275.3311999999998
 20
96.39348171535619
 30
0.0
 11
278.6827999999999
 21
96.39348171535619
 31
0.0
  0
LINE
  5
2836C
330
2
100
AcDbEntity
  8
0
  6
Continuous
 62
     7
100
AcDbLine
 10
277.0069999999999
 20
95.25393771535616
 30
0.0
 11
277.0069999999999
 21
97.5330257153562
 31
0.0
  0
LINE
  5
2836F
330
2
100
AcDbEntity
  8
0
  6
Continuous
 62
     7
100
AcDbLine
 10
277.0069999999999
 20
95.25393771535616
 30
0.0
 11
275.3311999999998
 21
96.39348171535619
 31
0.0
  0
LINE
  5
28370
330
2
100
AcDbEntity
  8
0
  6
Continuous
 62
     7
100
AcDbLine
 10
275.3311999999998
 20
96.39348171535619
 30
0.0
 11
277.0069999999999
 21
97.5330257153562
 31
0.0
  0
LINE
  5
28371
330
2
100
AcDbEntity
  8
0
  6
Continuous
 62
     7
100
AcDbLine
 10
0.5
 20
96.39348171535619
 30
0.0
 11
-2.851599999999999
 21
96.39348171535619
 31
0.0
  0
LINE
  5
28372
330
2
100
AcDbEntity
  8
0
  6
Continuous
 62
     7
100
AcDbLine
 10
-1.175799999999999
 20
95.25393771535616
 30
0.0
 11
-1.175799999999999
 21
97.5330257153562
 31
0.0
  0
LINE
  5
28373
330
2
100
AcDbEntity
  8
0
  6
Continuous
 62
     7
100
AcDbLine
 10
-1.175799999999999
 20
95.25393771535616
 30
0.0
 11
0.5
 21
96.39348171535619
 31
0.0
  0
LINE
  5
28374
330
2
100
AcDbEntity
  8
0
  6
Continuous
 62
     7
100
AcDbLine
 10
0.5
 20
96.39348171535619
 30
0.0
 11
-1.175799999999999
 21
97.5330257153562
 31
0.0
  0
LINE
  5
28375
330
2
100
AcDbEntity
  8
0
  6
Continuous
 62
     7
100
AcDbLine
 10
137.9156
 20
192.2869634307123
 30
0.0
 11
137.9156
 21
195.6385634307123
 31
0.0
  0
LINE
  5
28376
330
2
100
AcDbEntity
  8
0
  6
Continuous
 62
     7
100
AcDbLine
 10
136.7760559999999
 20
193.9627634307123
 30
0.0
 11
139.055144
 21
193.9627634307123
 31
0.0
  0
LINE
  5
28377
330
2
100
AcDbEntity
  8
0
  6
Continuous
 62
     7
100
AcDbLine
 10
136.7760559999999
 20
193.9627634307123
 30
0.0
 11
137.9156
 21
192.2869634307123
 31
0.0
  0
LINE
  5
28378
330
2
100
AcDbEntity
  8
0
  6
Continuous
 62
     7
100
AcDbLine
 10
137.9156
 20
192.2869634307123
 30
0.0
 11
139.055144
 21
193.9627634307123
 31
0.0
  0
LINE
  5
28379
330
2
100
AcDbEntity
  8
0
  6
Continuous
 62
     7
100
AcDbLine
 10
137.9156
 20
0.5
 30
0.0
 11
137.9156
 21
-2.851599999999999
 31
0.0
  0
LINE
  5
2837A
330
2
100
AcDbEntity
  8
0
  6
Continuous
 62
     7
100
AcDbLine
 10
136.7760559999999
 20
-1.175799999999999
 30
0.0
 11
139.055144
 21
-1.175799999999999
 31
0.0
  0
LINE
  5
2837B
330
2
100
AcDbEntity
  8
0
  6
Continuous
 62
     7
100
AcDbLine
 10
136.7760559999999
 20
-1.175799999999999
 30
0.0
 11
137.9156
 21
0.5
 31
0.0
  0
LINE
  5
2837C
330
2
100
AcDbEntity
  8
0
  6
Continuous
 62
     7
100
AcDbLine
 10
137.9156
 20
0.5
 30
0.0
 11
139.055144
 21
-1.175799999999999
 31
0.0
  0
TEXT
  5
2837D
330
2
100
AcDbEntity
  8
0
 62
     2
100
AcDbText
 10
34.1520456690476
 20
-2.215594408868794
 30
0.0
 40
1.876895999999999
  1
4
  7
굴림
100
AcDbText
  0
TEXT
  5
2837E
330
2
100
AcDbEntity
  8
0
 62
     2
100
AcDbText
 10
102.9235469072265
 20
-2.215594408868794
 30
0.0
 40
1.876895999999999
  1
3
  7
굴림
100
AcDbText
  0
TEXT
  5
2837F
330
2
100
AcDbEntity
  8
0
 62
     2
100
AcDbText
 10
171.5424706990155
 20
-2.215594408868794
 30
0.0
 40
1.876895999999999
  1
2
  7
굴림
100
AcDbText
  0
TEXT
  5
28380
330
2
100
AcDbEntity
  8
0
 62
     2
100
AcDbText
 10
240.4598218923343
 20
-2.215594408868794
 30
0.0
 40
1.876895999999999
  1
1
  7
굴림
100
AcDbText
  0
TEXT
  5
28392
330
2
100
AcDbEntity
  8
0
 62
     2
100
AcDbText
 10
34.1520456690476
 20
193.3555764790025
 30
0.0
 40
1.876895999999999
  1
4
  7
굴림
100
AcDbText
  0
TEXT
  5
28393
330
2
100
AcDbEntity
  8
0
 62
     2
100
AcDbText
 10
102.9235469072265
 20
193.3555764790025
 30
0.0
 40
1.876895999999999
  1
3
  7
굴림
100
AcDbText
  0
TEXT
  5
28394
330
2
100
AcDbEntity
  8
0
 62
     2
100
AcDbText
 10
171.5424706990155
 20
193.3555764790025
 30
0.0
 40
1.876895999999999
  1
2
  7
굴림
100
AcDbText
  0
TEXT
  5
28395
330
2
100
AcDbEntity
  8
0
 62
     2
100
AcDbText
 10
240.4598218923343
 20
193.3555764790025
 30
0.0
 40
1.876895999999999
  1
1
  7
굴림
100
AcDbText
  0
TEXT
  5
28396
330
2
100
AcDbEntity
  8
0
 62
     2
100
AcDbText
 10
-2.209557947343677
 20
23.84841253728
 30
0.0
 40
1.876895999999999
  1
A
  7
굴림
100
AcDbText
  0
TEXT
  5
283A7
330
2
100
AcDbEntity
  8
0
 62
     2
100
AcDbText
 10
-2.209557947343677
 20
71.39738603855146
 30
0.0
 40
1.876895999999999
  1
B
  7
굴림
100
AcDbText
  0
TEXT
  5
283A9
330
2
100
AcDbEntity
  8
0
 62
     2
100
AcDbText
 10
-2.209557947343677
 20
119.4000867432917
 30
0.0
 40
1.876895999999999
  1
C
  7
굴림
100
AcDbText
  0
TEXT
  5
283AA
330
2
100
AcDbEntity
  8
0
 62
     2
100
AcDbText
 10
-2.209557947343677
 20
167.6983781703912
 30
0.0
 40
1.876895999999999
  1
D
  7
굴림
100
AcDbText
  0
TEXT
  5
283AB
330
2
100
AcDbEntity
  8
0
 62
     2
100
AcDbText
 10
276.3352207099705
 20
23.84841253728
 30
0.0
 40
1.876895999999999
  1
A
  7
굴림
100
AcDbText
  0
TEXT
  5
283AC
330
2
100
AcDbEntity
  8
0
 62
     2
100
AcDbText
 10
276.3352207099705
 20
71.39738603855146
 30
0.0
 40
1.876895999999999
  1
B
  7
굴림
100
AcDbText
  0
TEXT
  5
283AD
330
2
100
AcDbEntity
  8
0
 62
     2
100
AcDbText
 10
276.3352207099705
 20
119.4000867432917
 30
0.0
 40
1.876895999999999
  1
C
  7
굴림
100
AcDbText
  0
TEXT
  5
283AE
330
2
100
AcDbEntity
  8
0
 62
     2
100
AcDbText
 10
276.3352207099705
 20
167.6983781703912
 30
0.0
 40
1.876895999999999
  1
D
  7
굴림
100
AcDbText
  0
SPLINE
  5
283D6
330
2
100
AcDbEntity
  8
Layer 1
100
AcDbSpline
210
0.0
220
0.0
230
1.0
 70
    11
 71
     3
 72
    41
 73
    37
 74
     0
 42
0.000000001
 43
0.0000000001
 40
0.0
 40
0.0
 40
0.0
 40
0.0
 40
1.0
 40
1.0
 40
1.0
 40
2.0
 40
2.0
 40
2.0
 40
3.0
 40
3.0
 40
3.0
 40
4.0
 40
4.0
 40
4.0
 40
5.0
 40
5.0
 40
5.0
 40
6.0
 40
6.0
 40
6.0
 40
7.0
 40
7.0
 40
7.0
 40
8.0
 40
8.0
 40
8.0
 40
9.0
 40
9.0
 40
9.0
 40
10.0
 40
10.0
 40
10.0
 40
11.0
 40
11.0
 40
11.0
 40
12.0
 40
12.0
 40
12.0
 40
12.0
 10
227.5923346505039
 20
19.29998155526998
 30
0.0
 10
227.5923346505039
 20
19.29998155526998
 30
0.0
 10
225.8380287348576
 20
19.29998155526998
 30
0.0
 10
225.8380287348576
 20
19.29998155526998
 30
0.0
 10
225.8380287348576
 20
19.29998155526998
 30
0.0
 10
229.3467603710779
 20
24.71622163900658
 30
0.0
 10
229.3467603710779
 20
24.71622163900658
 30
0.0
 10
229.3467603710779
 20
24.71622163900658
 30
0.0
 10
231.1548881490208
 20
24.71622163900658
 30
0.0
 10
231.1548881490208
 20
24.71622163900658
 30
0.0
 10
231.1548881490208
 20
24.71622163900658
 30
0.0
 10
231.5610620891428
 20
19.29998155526998
 30
0.0
 10
231.5610620891428
 20
19.29998155526998
 30
0.0
 10
231.5610620891428
 20
19.29998155526998
 30
0.0
 10
229.9291109051489
 20
19.29998155526998
 30
0.0
 10
229.9291109051489
 20
19.29998155526998
 30
0.0
 10
229.9291109051489
 20
19.29998155526998
 30
0.0
 10
229.8754079660923
 20
20.17343444894676
 30
0.0
 10
229.8754079660923
 20
20.17343444894676
 30
0.0
 10
229.8754079660923
 20
20.17343444894676
 30
0.0
 10
228.6924276179193
 20
20.17343444894676
 30
0.0
 10
228.6924276179193
 20
20.17343444894676
 30
0.0
 10
228.6924276179193
 20
20.17343444894676
 30
0.0
 10
229.2797124982168
 20
21.29935356691016
 30
0.0
 10
229.2797124982168
 20
21.29935356691016
 30
0.0
 10
229.2797124982168
 20
21.29935356691016
 30
0.0
 10
229.8218536239894
 20
21.29935356691016
 30
0.0
 10
229.8218536239894
 20
21.29935356691016
 30
0.0
 10
229.8218536239894
 20
21.29935356691016
 30
0.0
 10
229.7527857599232
 20
22.8853288534383
 30
0.0
 10
229.7527857599232
 20
22.8853288534383
 30
0.0
 10
229.7527857599232
 20
22.8853288534383
 30
0.0
 10
227.6010433152532
 20
19.31216650547106
 30
0.0
 10
227.6010433152532
 20
19.31216650547106
 30
0.0
 10
227.6010433152532
 20
19.31216650547106
 30
0.0
 10
227.5923346505039
 20
19.29998155526998
 30
0.0
 10
227.5923346505039
 20
19.29998155526998
 30
0.0
  0
SPLINE
  5
283D7
102
{ACAD_REACTORS
330
2923A
102
}
330
2
100
AcDbEntity
  8
Layer 1
100
AcDbSpline
210
0.0
220
0.0
230
1.0
 70
    11
 71
     3
 72
    17
 73
    13
 74
     0
 42
0.000000001
 43
0.0000000001
 40
0.0
 40
0.0
 40
0.0
 40
0.0
 40
1.0
 40
1.0
 40
1.0
 40
2.0
 40
2.0
 40
2.0
 40
3.0
 40
3.0
 40
3.0
 40
4.0
 40
4.0
 40
4.0
 40
4.0
 10
239.0302296986123
 20
19.29998155526998
 30
0.0
 10
239.0302296986123
 20
19.29998155526998
 30
0.0
 10
237.360117644926
 20
19.29998155526998
 30
0.0
 10
237.360117644926
 20
19.29998155526998
 30
0.0
 10
237.360117644926
 20
19.29998155526998
 30
0.0
 10
238.8081949584476
 20
24.70867624437805
 30
0.0
 10
238.8081949584476
 20
24.70867624437805
 30
0.0
 10
238.8081949584476
 20
24.70867624437805
 30
0.0
 10
240.478186962581
 20
24.70867624437805
 30
0.0
 10
240.478186962581
 20
24.70867624437805
 30
0.0
 10
240.478186962581
 20
24.70867624437805
 30
0.0
 10
239.0302296986123
 20
19.29998155526998
 30
0.0
 10
239.0302296986123
 20
19.29998155526998
 30
0.0
  0
LWPOLYLINE
  5
283DB
102
{ACAD_REACTORS
330
28498
102
}
330
2
100
AcDbEntity
  8
Layer 1
 62
   103
100
AcDbPolyline
 90
        8
 70
     1
 43
0.0
 10
259.6059731911617
 20
26.47109222307688
 10
233.9049412781733
 20
26.47210268236184
 10
233.5215611377028
 20
25.21107921412096
 10
242.4282247856024
 20
25.21063676655853
 10
240.7236988494358
 20
19.29998155527
 10
242.3939880474768
 20
19.29998155527
 10
244.0981870703452
 20
25.21063676655853
 10
259.2206926917282
 20
25.20989043849159
  0
SPLINE
  5
283DD
102
{ACAD_REACTORS
330
2924F
102
}
330
2
100
AcDbEntity
  8
Layer 1
100
AcDbSpline
210
0.0
220
0.0
230
1.0
 70
     9
 71
     3
 72
    17
 73
    13
 74
     0
 42
0.000000001
 43
0.0000000001
 40
0.0
 40
0.0
 40
0.0
 40
0.0
 40
1.0
 40
1.0
 40
1.0
 40
2.0
 40
2.0
 40
2.0
 40
3.0
 40
3.0
 40
3.0
 40
4.0
 40
4.0
 40
4.0
 40
4.0
 10
248.5061968234257
 20
22.32357292978132
 30
0.0
 10
248.5061968234257
 20
23.10837288089808
 30
0.0
 10
248.0338368270969
 20
23.48158898973764
 30
0.0
 10
247.4853060323167
 20
23.48158898973764
 30
0.0
 10
246.4416515471238
 20
23.48158898973764
 30
0.0
 10
245.8700571459155
 20
22.30081114626944
 30
0.0
 10
245.8700571459155
 20
21.47799682461318
 30
0.0
 10
245.8700571459155
 20
20.68567786764069
 30
0.0
 10
246.3577820672537
 20
20.31231316184737
 30
0.0
 10
246.9215291900898
 20
20.31231316184737
 30
0.0
 10
248.0492314714974
 20
20.31231316184737
 30
0.0
 10
248.5061968234257
 20
21.53895129500892
 30
0.0
 10
248.5061968234257
 20
22.32357292978132
 30
0.0
  0
SPLINE
  5
283DE
102
{ACAD_REACTORS
330
2924F
102
}
330
2
100
AcDbEntity
  8
Layer 1
100
AcDbSpline
210
0.0
220
0.0
230
1.0
 70
     9
 71
     3
 72
    17
 73
    13
 74
     0
 42
0.000000001
 43
0.0000000001
 40
0.0
 40
0.0
 40
0.0
 40
0.0
 40
1.0
 40
1.0
 40
1.0
 40
2.0
 40
2.0
 40
2.0
 40
3.0
 40
3.0
 40
3.0
 40
4.0
 40
4.0
 40
4.0
 40
4.0
 10
246.8222961444286
 20
19.01714211365301
 30
0.0
 10
245.1616063095947
 20
19.01714211365301
 30
0.0
 10
244.2016699888815
 20
20.09143864991123
 30
0.0
 10
244.2016699888815
 20
21.49309427510605
 30
0.0
 10
244.2016699888815
 20
23.02432644390192
 30
0.0
 10
245.3444400013912
 20
24.7157758481455
 30
0.0
 10
247.47005998487
 20
24.7157758481455
 30
0.0
 10
249.1994016122998
 20
24.7157758481455
 30
0.0
 10
250.1591893360593
 20
23.58825518539628
 30
0.0
 10
250.1591893360593
 20
22.22445876168296
 30
0.0
 10
250.1591893360593
 20
20.70077531813356
 30
0.0
 10
249.0240869263591
 20
19.01714211365301
 30
0.0
 10
246.8222961444286
 20
19.01714211365301
 30
0.0
  0
SPLINE
  5
283E0
102
{ACAD_REACTORS
330
29296
102
}
330
2
100
AcDbEntity
  8
Layer 1
100
AcDbSpline
210
0.0
220
0.0
230
1.0
 70
     9
 71
     3
 72
    17
 73
    13
 74
     0
 42
0.000000001
 43
0.0000000001
 40
0.0
 40
0.0
 40
0.0
 40
0.0
 40
1.0
 40
1.0
 40
1.0
 40
2.0
 40
2.0
 40
2.0
 40
3.0
 40
3.0
 40
3.0
 40
4.0
 40
4.0
 40
4.0
 40
4.0
 10
254.6496109596456
 20
22.32357292978132
 30
0.0
 10
254.6496109596456
 20
23.10837288089808
 30
0.0
 10
254.1772509633169
 20
23.48158898973764
 30
0.0
 10
253.6284229746292
 20
23.48158898973764
 30
0.0
 10
252.5850643241252
 20
23.48158898973764
 30
0.0
 10
252.0137402566331
 20
22.30081114626944
 30
0.0
 10
252.0137402566331
 20
21.47799682461318
 30
0.0
 10
252.0137402566331
 20
20.68567786764069
 30
0.0
 10
252.5010476065198
 20
20.31231316184737
 30
0.0
 10
253.0647947293561
 20
20.31231316184737
 30
0.0
 10
254.1923484138098
 20
20.31231316184737
 30
0.0
 10
254.6496109596456
 20
21.53895129500892
 30
0.0
 10
254.6496109596456
 20
22.32357292978132
 30
0.0
  0
SPLINE
  5
283E1
102
{ACAD_REACTORS
330
29296
102
}
330
2
100
AcDbEntity
  8
Layer 1
100
AcDbSpline
210
0.0
220
0.0
230
1.0
 70
     9
 71
     3
 72
    17
 73
    13
 74
     0
 42
0.000000001
 43
0.0000000001
 40
0.0
 40
0.0
 40
0.0
 40
0.0
 40
1.0
 40
1.0
 40
1.0
 40
2.0
 40
2.0
 40
2.0
 40
3.0
 40
3.0
 40
3.0
 40
4.0
 40
4.0
 40
4.0
 40
4.0
 10
252.9658291582113
 20
19.01714211365301
 30
0.0
 10
251.3052879203311
 20
19.01714211365301
 30
0.0
 10
250.3452327220549
 20
20.09143864991123
 30
0.0
 10
250.3452327220549
 20
21.49309427510605
 30
0.0
 10
250.3452327220549
 20
23.02432644390192
 30
0.0
 10
251.487854137611
 20
24.7157758481455
 30
0.0
 10
253.6136227180437
 20
24.7157758481455
 30
0.0
 10
255.3428157485197
 20
24.7157758481455
 30
0.0
 10
256.3027520692327
 20
23.58825518539628
 30
0.0
 10
256.3027520692327
 20
22.22445876168296
 30
0.0
 10
256.3027520692327
 20
20.70077531813356
 30
0.0
 10
255.1676496595326
 20
19.01714211365301
 30
0.0
 10
252.9658291582113
 20
19.01714211365301
 30
0.0
  0
TEXT
  5
2844E
330
2
100
AcDbEntity
  8
0
 62
     2
100
AcDbText
 10
223.9425025859367
 20
12.85347561407977
 30
0.0
 40
2.627654399999999
  1
www.maritool.com
  7
굴림
100
AcDbText
  0
TEXT
  5
28454
330
2
100
AcDbEntity
  8
0
 62
     2
100
AcDbText
 10
205.9775128786343
 20
4.051806774398166
 30
0.0
 40
2.102123519999999
  1
ITEM#
  7
굴림
100
AcDbText
  0
TEXT
  5
28455
330
2
100
AcDbEntity
  8
0
 62
     2
100
AcDbText
 10
223.0295816888257
 20
3.552348089474925
 30
0.0
 40
3.153185279999998
  1
DSF16-TB16-4.0 T
  7
굴림
100
AcDbText
  0
HATCH
  5
28498
330
2
100
AcDbEntity
  8
0
  6
Continuous
 62
    93
100
AcDbHatch
 10
0.0
 20
0.0
 30
0.0
210
0.0
220
0.0
230
0.9999999999999998
  2
SOLID
 70
     1
 71
     1
 91
        1
 92
        7
 72
     0
 73
     1
 93
        8
 10
233.9049412781733
 20
26.47210268236184
 10
233.5215611377028
 20
25.21107921412096
 10
242.4282247856024
 20
25.21063676655853
 10
240.7236988494358
 20
19.29998155527
 10
242.3939880474768
 20
19.29998155527
 10
244.0981870703452
 20
25.21063676655853
 10
259.2206926917282
 20
25.20989043849159
 10
259.6059731911617
 20
26.47109222307688
 97
        1
330
283DB
 75
     1
 76
     1
 47
0.0428322549537331
 98
        1
 10
245.2145526953313
 20
25.84900527075732
450
        0
451
        0
460
0.0
461
0.0
452
        0
462
1.0
453
        2
463
0.0
 63
     5
421
      255
463
1.0
 63
     2
421
 16776960
470
LINEAR
1001
GRADIENTCOLOR1ACI
1070
     5
1001
GRADIENTCOLOR2ACI
1070
     2
1001
ACAD
1010
0.0
1020
0.0
1030
0.0
  0
SPLINE
  5
2910D
102
{ACAD_REACTORS
330
29214
102
}
330
2
100
AcDbEntity
  8
Layer 1
100
AcDbSpline
210
0.0
220
0.0
230
1.0
 70
    24
 71
     3
 72
     8
 73
     4
 74
     0
 42
0.000000001
 43
0.0000000001
 40
0.0
 40
0.0
 40
0.0
 40
0.0
 40
1.0
 40
1.0
 40
1.0
 40
1.0
 10
259.8197150493218
 20
20.42649506104808
 30
0.0
 10
259.8197150493218
 20
20.42649506104808
 30
0.0
 10
259.406438888509
 20
19.1772107521471
 30
0.0
 10
259.406438888509
 20
19.1772107521471
 30
0.0
  0
SPLINE
  5
2910E
102
{ACAD_REACTORS
330
29214
102
}
330
2
100
AcDbEntity
  8
Layer 1
100
AcDbSpline
210
0.0
220
0.0
230
1.0
 70
    24
 71
     3
 72
     8
 73
     4
 74
     0
 42
0.000000001
 43
0.0000000001
 40
1.0
 40
1.0
 40
1.0
 40
1.0
 40
2.0
 40
2.0
 40
2.0
 40
2.0
 10
259.406438888509
 20
19.1772107521471
 30
0.0
 10
259.406438888509
 20
19.1772107521471
 30
0.0
 10
255.9245728221407
 20
19.1772107521471
 30
0.0
 10
255.9245728221407
 20
19.1772107521471
 30
0.0
  0
SPLINE
  5
2910F
102
{ACAD_REACTORS
330
29214
102
}
330
2
100
AcDbEntity
  8
Layer 1
100
AcDbSpline
210
0.0
220
0.0
230
1.0
 70
    24
 71
     3
 72
     8
 73
     4
 74
     0
 42
0.000000001
 43
0.0000000001
 40
2.0
 40
2.0
 40
2.0
 40
2.0
 40
3.0
 40
3.0
 40
3.0
 40
3.0
 10
255.9245728221407
 20
19.1772107521471
 30
0.0
 10
255.9245728221407
 20
19.1772107521471
 30
0.0
 10
257.3642395480845
 20
24.55588552599577
 30
0.0
 10
257.3642395480845
 20
24.55588552599577
 30
0.0
  0
SPLINE
  5
29110
102
{ACAD_REACTORS
330
29214
102
}
330
2
100
AcDbEntity
  8
Layer 1
100
AcDbSpline
210
0.0
220
0.0
230
1.0
 70
    24
 71
     3
 72
     8
 73
     4
 74
     0
 42
0.000000001
 43
0.0000000001
 40
3.0
 40
3.0
 40
3.0
 40
3.0
 40
4.0
 40
4.0
 40
4.0
 40
4.0
 10
257.3642395480845
 20
24.55588552599577
 30
0.0
 10
257.3642395480845
 20
24.55588552599577
 30
0.0
 10
259.0558375492818
 20
24.55588552599577
 30
0.0
 10
259.0558375492818
 20
24.55588552599577
 30
0.0
  0
SPLINE
  5
29111
102
{ACAD_REACTORS
330
29214
102
}
330
2
100
AcDbEntity
  8
Layer 1
100
AcDbSpline
210
0.0
220
0.0
230
1.0
 70
    24
 71
     3
 72
     8
 73
     4
 74
     0
 42
0.000000001
 43
0.0000000001
 40
4.0
 40
4.0
 40
4.0
 40
4.0
 40
5.0
 40
5.0
 40
5.0
 40
5.0
 10
259.0558375492818
 20
24.55588552599577
 30
0.0
 10
259.0558375492818
 20
24.55588552599577
 30
0.0
 10
257.9510802874918
 20
20.42649506104808
 30
0.0
 10
257.9510802874918
 20
20.42649506104808
 30
0.0
  0
SPLINE
  5
29112
102
{ACAD_REACTORS
330
29214
102
}
330
2
100
AcDbEntity
  8
Layer 1
100
AcDbSpline
210
0.0
220
0.0
230
1.0
 70
    24
 71
     3
 72
     8
 73
     4
 74
     0
 42
0.000000001
 43
0.0000000001
 40
5.0
 40
5.0
 40
5.0
 40
5.0
 40
6.0
 40
6.0
 40
6.0
 40
6.0
 10
257.9510802874918
 20
20.42649506104808
 30
0.0
 10
257.9510802874918
 20
20.42649506104808
 30
0.0
 10
259.8197150493218
 20
20.42649506104808
 30
0.0
 10
259.8197150493218
 20
20.42649506104808
 30
0.0
  0
HATCH
  5
29214
330
2
100
AcDbEntity
  8
0
  6
Continuous
 62
     0
100
AcDbHatch
 10
0.0
 20
0.0
 30
0.0
210
0.0
220
0.0
230
0.9999999999999998
  2
SOLID
 70
     1
 71
     1
 91
        1
 92
        5
 93
        6
 72
     4
 94
        3
 73
     0
 74
     0
 95
        8
 96
        4
 40
4.0
 40
4.0
 40
4.0
 40
4.0
 40
5.0
 40
5.0
 40
5.0
 40
5.0
 10
257.9510802874918
 20
20.42649506104808
 10
257.9510802874918
 20
20.42649506104808
 10
259.0558375492818
 20
24.55588552599577
 10
259.0558375492818
 20
24.55588552599577
 97
        0
 72
     4
 94
        3
 73
     0
 74
     0
 95
        8
 96
        4
 40
3.0
 40
3.0
 40
3.0
 40
3.0
 40
4.0
 40
4.0
 40
4.0
 40
4.0
 10
259.0558375492818
 20
24.55588552599577
 10
259.0558375492818
 20
24.55588552599577
 10
257.3642395480845
 20
24.55588552599577
 10
257.3642395480845
 20
24.55588552599577
 97
        0
 72
     4
 94
        3
 73
     0
 74
     0
 95
        8
 96
        4
 40
2.0
 40
2.0
 40
2.0
 40
2.0
 40
3.0
 40
3.0
 40
3.0
 40
3.0
 10
257.3642395480845
 20
24.55588552599577
 10
257.3642395480845
 20
24.55588552599577
 10
255.9245728221407
 20
19.1772107521471
 10
255.9245728221407
 20
19.1772107521471
 97
        0
 72
     4
 94
        3
 73
     0
 74
     0
 95
        8
 96
        4
 40
1.0
 40
1.0
 40
1.0
 40
1.0
 40
2.0
 40
2.0
 40
2.0
 40
2.0
 10
255.9245728221407
 20
19.1772107521471
 10
255.9245728221407
 20
19.1772107521471
 10
259.406438888509
 20
19.1772107521471
 10
259.406438888509
 20
19.1772107521471
 97
        0
 72
     4
 94
        3
 73
     0
 74
     0
 95
        8
 96
        4
 40
0.0
 40
0.0
 40
0.0
 40
0.0
 40
1.0
 40
1.0
 40
1.0
 40
1.0
 10
259.406438888509
 20
19.1772107521471
 10
259.406438888509
 20
19.1772107521471
 10
259.8197150493218
 20
20.42649506104808
 10
259.8197150493218
 20
20.42649506104808
 97
        0
 72
     4
 94
        3
 73
     0
 74
     0
 95
        8
 96
        4
 40
5.0
 40
5.0
 40
5.0
 40
5.0
 40
6.0
 40
6.0
 40
6.0
 40
6.0
 10
259.8197150493218
 20
20.42649506104808
 10
259.8197150493218
 20
20.42649506104808
 10
257.9510802874918
 20
20.42649506104808
 10
257.9510802874918
 20
20.42649506104808
 97
        0
 97
        6
330
29111
330
29110
330
2910F
330
2910E
330
2910D
330
29112
 75
     1
 76
     1
 47
0.0168242271866721
 98
        1
 10
257.4330670291712
 20
20.77735750736971
450
        0
451
        0
460
0.0
461
0.0
452
        0
462
1.0
453
        2
463
0.0
 63
     5
421
      255
463
1.0
 63
     2
421
 16776960
470
LINEAR
1001
GRADIENTCOLOR1ACI
1070
     5
1001
GRADIENTCOLOR2ACI
1070
     2
1001
ACAD
1010
0.0
1020
0.0
1030
0.0
  0
SPLINE
  5
29215
102
{ACAD_REACTORS
330
29234
102
}
330
2
100
AcDbEntity
  8
Layer 1
100
AcDbSpline
210
0.0
220
0.0
230
1.0
 70
     8
 71
     3
 72
     8
 73
     4
 74
     0
 42
0.000000001
 43
0.0000000001
 40
0.0
 40
0.0
 40
0.0
 40
0.0
 40
1.0
 40
1.0
 40
1.0
 40
1.0
 10
237.4978373015881
 20
23.24838093064673
 30
0.0
 10
237.4978373015881
 20
24.33617007029818
 30
0.0
 10
236.5402190933521
 20
24.71928273625215
 30
0.0
 10
235.7052241792785
 20
24.71928273625215
 30
0.0
  0
SPLINE
  5
29216
102
{ACAD_REACTORS
330
29234
102
}
330
2
100
AcDbEntity
  8
Layer 1
100
AcDbSpline
210
0.0
220
0.0
230
1.0
 70
    24
 71
     3
 72
     8
 73
     4
 74
     0
 42
0.000000001
 43
0.0000000001
 40
1.0
 40
1.0
 40
1.0
 40
1.0
 40
2.0
 40
2.0
 40
2.0
 40
2.0
 10
235.7052241792785
 20
24.71928273625215
 30
0.0
 10
235.7052241792785
 20
24.71928273625215
 30
0.0
 10
233.3148935221454
 20
24.71928273625215
 30
0.0
 10
233.3148935221454
 20
24.71928273625215
 30
0.0
  0
SPLINE
  5
29217
102
{ACAD_REACTORS
330
29234
102
}
330
2
100
AcDbEntity
  8
Layer 1
100
AcDbSpline
210
0.0
220
0.0
230
1.0
 70
    24
 71
     3
 72
     8
 73
     4
 74
     0
 42
0.000000001
 43
0.0000000001
 40
2.0
 40
2.0
 40
2.0
 40
2.0
 40
3.0
 40
3.0
 40
3.0
 40
3.0
 10
233.3148935221454
 20
24.71928273625215
 30
0.0
 10
233.3148935221454
 20
24.71928273625215
 30
0.0
 10
231.8592664557693
 20
19.31044597505541
 30
0.0
 10
231.8592664557693
 20
19.31044597505541
 30
0.0
  0
SPLINE
  5
29218
102
{ACAD_REACTORS
330
29234
102
}
330
2
100
AcDbEntity
  8
Layer 1
100
AcDbSpline
210
0.0
220
0.0
230
1.0
 70
    24
 71
     3
 72
     8
 73
     4
 74
     0
 42
0.000000001
 43
0.0000000001
 40
3.0
 40
3.0
 40
3.0
 40
3.0
 40
4.0
 40
4.0
 40
4.0
 40
4.0
 10
231.8592664557693
 20
19.31044597505541
 30
0.0
 10
231.8592664557693
 20
19.31044597505541
 30
0.0
 10
233.5756801482296
 20
19.31044597505541
 30
0.0
 10
233.5756801482296
 20
19.31044597505541
 30
0.0
  0
SPLINE
  5
29219
102
{ACAD_REACTORS
330
29234
102
}
330
2
100
AcDbEntity
  8
Layer 1
100
AcDbSpline
210
0.0
220
0.0
230
1.0
 70
    24
 71
     3
 72
     8
 73
     4
 74
     0
 42
0.000000001
 43
0.0000000001
 40
4.0
 40
4.0
 40
4.0
 40
4.0
 40
5.0
 40
5.0
 40
5.0
 40
5.0
 10
233.5756801482296
 20
19.31044597505541
 30
0.0
 10
233.5756801482296
 20
19.31044597505541
 30
0.0
 10
234.7014803886299
 20
23.50872279347789
 30
0.0
 10
234.7014803886299
 20
23.50872279347789
 30
0.0
  0
SPLINE
  5
2921A
102
{ACAD_REACTORS
330
29234
102
}
330
2
100
AcDbEntity
  8
Layer 1
100
AcDbSpline
210
0.0
220
0.0
230
1.0
 70
    24
 71
     3
 72
     8
 73
     4
 74
     0
 42
0.000000001
 43
0.0000000001
 40
5.0
 40
5.0
 40
5.0
 40
5.0
 40
6.0
 40
6.0
 40
6.0
 40
6.0
 10
234.7014803886299
 20
23.50872279347789
 30
0.0
 10
234.7014803886299
 20
23.50872279347789
 30
0.0
 10
235.2071855413623
 20
23.50872279347789
 30
0.0
 10
235.2071855413623
 20
23.50872279347789
 30
0.0
  0
SPLINE
  5
2921B
102
{ACAD_REACTORS
330
29234
102
}
330
2
100
AcDbEntity
  8
Layer 1
100
AcDbSpline
210
0.0
220
0.0
230
1.0
 70
     8
 71
     3
 72
    11
 73
     7
 74
     0
 42
0.000000001
 43
0.0000000001
 40
6.0
 40
6.0
 40
6.0
 40
6.0
 40
7.0
 40
7.0
 40
7.0
 40
8.0
 40
8.0
 40
8.0
 40
8.0
 10
235.2071855413623
 20
23.50872279347789
 30
0.0
 10
235.5058356988499
 20
23.50872279347789
 30
0.0
 10
235.812480372445
 20
23.43980352636535
 30
0.0
 10
235.812480372445
 20
23.07223410176534
 30
0.0
 10
235.812480372445
 20
22.8731439032373
 30
0.0
 10
235.6593660713825
 20
22.55113430463269
 30
0.0
 10
235.1536609186504
 20
22.56664782659588
 30
0.0
  0
SPLINE
  5
2921C
102
{ACAD_REACTORS
330
29234
102
}
330
2
100
AcDbEntity
  8
Layer 1
100
AcDbSpline
210
0.0
220
0.0
230
1.0
 70
    24
 71
     3
 72
     8
 73
     4
 74
     0
 42
0.000000001
 43
0.0000000001
 40
8.0
 40
8.0
 40
8.0
 40
8.0
 40
9.0
 40
9.0
 40
9.0
 40
9.0
 10
235.1536609186504
 20
22.56664782659588
 30
0.0
 10
235.1536609186504
 20
22.56664782659588
 30
0.0
 10
234.8297492790387
 20
21.38093329447545
 30
0.0
 10
234.8297492790387
 20
21.38093329447545
 30
0.0
  0
SPLINE
  5
2921D
102
{ACAD_REACTORS
330
29234
102
}
330
2
100
AcDbEntity
  8
Layer 1
100
AcDbSpline
210
0.0
220
0.0
230
1.0
 70
    24
 71
     3
 72
     8
 73
     4
 74
     0
 42
0.000000001
 43
0.0000000001
 40
9.0
 40
9.0
 40
9.0
 40
9.0
 40
10.0
 40
10.0
 40
10.0
 40
10.0
 10
234.8297492790387
 20
21.38093329447545
 30
0.0
 10
234.8297492790387
 20
21.38093329447545
 30
0.0
 10
235.4483881165608
 20
19.22713932858048
 30
0.0
 10
235.4483881165608
 20
19.22713932858048
 30
0.0
  0
SPLINE
  5
2921E
102
{ACAD_REACTORS
330
29234
102
}
330
2
100
AcDbEntity
  8
Layer 1
100
AcDbSpline
210
0.0
220
0.0
230
1.0
 70
    24
 71
     3
 72
     8
 73
     4
 74
     0
 42
0.000000001
 43
0.0000000001
 40
10.0
 40
10.0
 40
10.0
 40
10.0
 40
11.0
 40
11.0
 40
11.0
 40
11.0
 10
235.4483881165608
 20
19.22713932858048
 30
0.0
 10
235.4483881165608
 20
19.22713932858048
 30
0.0
 10
236.8636860593611
 20
19.22713932858048
 30
0.0
 10
236.8636860593611
 20
19.22713932858048
 30
0.0
  0
SPLINE
  5
2921F
102
{ACAD_REACTORS
330
29234
102
}
330
2
100
AcDbEntity
  8
Layer 1
100
AcDbSpline
210
0.0
220
0.0
230
1.0
 70
    24
 71
     3
 72
     8
 73
     4
 74
     0
 42
0.000000001
 43
0.0000000001
 40
11.0
 40
11.0
 40
11.0
 40
11.0
 40
12.0
 40
12.0
 40
12.0
 40
12.0
 10
236.8636860593611
 20
19.22713932858048
 30
0.0
 10
236.8636860593611
 20
19.22713932858048
 30
0.0
 10
236.0934177730549
 20
21.52676634480784
 30
0.0
 10
236.0934177730549
 20
21.52676634480784
 30
0.0
  0
SPLINE
  5
29220
102
{ACAD_REACTORS
330
29234
102
}
330
2
100
AcDbEntity
  8
Layer 1
100
AcDbSpline
210
0.0
220
0.0
230
1.0
 70
     8
 71
     3
 72
     8
 73
     4
 74
     0
 42
0.000000001
 43
0.0000000001
 40
12.0
 40
12.0
 40
12.0
 40
12.0
 40
13.0
 40
13.0
 40
13.0
 40
13.0
 10
236.0934177730549
 20
21.52676634480784
 30
0.0
 10
236.3344420319088
 20
21.60005436235835
 30
0.0
 10
236.5735939691466
 20
21.70772771498819
 30
0.0
 10
236.785166311783
 20
21.86937148119124
 30
0.0
  0
SPLINE
  5
29221
102
{ACAD_REACTORS
330
29234
102
}
330
2
100
AcDbEntity
  8
Layer 1
100
AcDbSpline
210
0.0
220
0.0
230
1.0
 70
     8
 71
     3
 72
     8
 73
     4
 74
     0
 42
0.000000001
 43
0.0000000001
 40
13.0
 40
13.0
 40
13.0
 40
13.0
 40
14.0
 40
14.0
 40
14.0
 40
14.0
 10
236.785166311783
 20
21.86937148119124
 30
0.0
 10
237.2525928892498
 20
22.2295407774984
 30
0.0
 10
237.4978373015881
 20
22.74297297182171
 30
0.0
 10
237.4978373015881
 20
23.24838093064673
 30
0.0
  0
HATCH
  5
29234
330
2
100
AcDbEntity
  8
0
  6
Continuous
 62
     0
100
AcDbHatch
 10
0.0
 20
0.0
 30
0.0
210
0.0
220
0.0
230
0.9999999999999998
  2
SOLID
 70
     1
 71
     1
 91
        1
 92
        5
 93
       14
 72
     4
 94
        3
 73
     0
 74
     0
 95
        8
 96
        4
 40
11.0
 40
11.0
 40
11.0
 40
11.0
 40
12.0
 40
12.0
 40
12.0
 40
12.0
 10
236.8636860593611
 20
19.22713932858048
 10
236.8636860593611
 20
19.22713932858048
 10
236.0934177730549
 20
21.52676634480784
 10
236.0934177730549
 20
21.52676634480784
 97
        0
 72
     4
 94
        3
 73
     0
 74
     0
 95
        8
 96
        4
 40
12.0
 40
12.0
 40
12.0
 40
12.0
 40
13.0
 40
13.0
 40
13.0
 40
13.0
 10
236.0934177730549
 20
21.52676634480784
 10
236.3344420319088
 20
21.60005436235835
 10
236.5735939691466
 20
21.70772771498819
 10
236.785166311783
 20
21.86937148119124
 97
        0
 72
     4
 94
        3
 73
     0
 74
     0
 95
        8
 96
        4
 40
13.0
 40
13.0
 40
13.0
 40
13.0
 40
14.0
 40
14.0
 40
14.0
 40
14.0
 10
236.785166311783
 20
21.86937148119124
 10
237.2525928892498
 20
22.2295407774984
 10
237.4978373015881
 20
22.74297297182171
 10
237.4978373015881
 20
23.24838093064673
 97
        0
 72
     4
 94
        3
 73
     0
 74
     0
 95
        8
 96
        4
 40
0.0
 40
0.0
 40
0.0
 40
0.0
 40
1.0
 40
1.0
 40
1.0
 40
1.0
 10
237.4978373015881
 20
23.24838093064673
 10
237.4978373015881
 20
24.33617007029818
 10
236.5402190933521
 20
24.71928273625215
 10
235.7052241792785
 20
24.71928273625215
 97
        0
 72
     4
 94
        3
 73
     0
 74
     0
 95
        8
 96
        4
 40
1.0
 40
1.0
 40
1.0
 40
1.0
 40
2.0
 40
2.0
 40
2.0
 40
2.0
 10
235.7052241792785
 20
24.71928273625215
 10
235.7052241792785
 20
24.71928273625215
 10
233.3148935221454
 20
24.71928273625215
 10
233.3148935221454
 20
24.71928273625215
 97
        0
 72
     4
 94
        3
 73
     0
 74
     0
 95
        8
 96
        4
 40
2.0
 40
2.0
 40
2.0
 40
2.0
 40
3.0
 40
3.0
 40
3.0
 40
3.0
 10
233.3148935221454
 20
24.71928273625215
 10
233.3148935221454
 20
24.71928273625215
 10
231.8592664557693
 20
19.31044597505541
 10
231.8592664557693
 20
19.31044597505541
 97
        0
 72
     4
 94
        3
 73
     0
 74
     0
 95
        8
 96
        4
 40
3.0
 40
3.0
 40
3.0
 40
3.0
 40
4.0
 40
4.0
 40
4.0
 40
4.0
 10
231.8592664557693
 20
19.31044597505541
 10
231.8592664557693
 20
19.31044597505541
 10
233.5756801482296
 20
19.31044597505541
 10
233.5756801482296
 20
19.31044597505541
 97
        0
 72
     4
 94
        3
 73
     0
 74
     0
 95
        8
 96
        4
 40
4.0
 40
4.0
 40
4.0
 40
4.0
 40
5.0
 40
5.0
 40
5.0
 40
5.0
 10
233.5756801482296
 20
19.31044597505541
 10
233.5756801482296
 20
19.31044597505541
 10
234.7014803886299
 20
23.50872279347789
 10
234.7014803886299
 20
23.50872279347789
 97
        0
 72
     4
 94
        3
 73
     0
 74
     0
 95
        8
 96
        4
 40
5.0
 40
5.0
 40
5.0
 40
5.0
 40
6.0
 40
6.0
 40
6.0
 40
6.0
 10
234.7014803886299
 20
23.50872279347789
 10
234.7014803886299
 20
23.50872279347789
 10
235.2071855413623
 20
23.50872279347789
 10
235.2071855413623
 20
23.50872279347789
 97
        0
 72
     4
 94
        3
 73
     0
 74
     0
 95
        8
 96
        4
 40
6.0
 40
6.0
 40
6.0
 40
6.0
 40
7.0
 40
7.0
 40
7.0
 40
7.0
 10
235.812480372445
 20
23.07223410176534
 10
235.812480372445
 20
23.43980352636535
 10
235.5058356988499
 20
23.50872279347789
 10
235.2071855413623
 20
23.50872279347789
 97
        0
 72
     4
 94
        3
 73
     0
 74
     0
 95
        8
 96
        4
 40
7.0
 40
7.0
 40
7.0
 40
7.0
 40
8.0
 40
8.0
 40
8.0
 40
8.0
 10
235.812480372445
 20
23.07223410176534
 10
235.812480372445
 20
22.8731439032373
 10
235.6593660713825
 20
22.55113430463269
 10
235.1536609186504
 20
22.56664782659588
 97
        0
 72
     4
 94
        3
 73
     0
 74
     0
 95
        8
 96
        4
 40
8.0
 40
8.0
 40
8.0
 40
8.0
 40
9.0
 40
9.0
 40
9.0
 40
9.0
 10
235.1536609186504
 20
22.56664782659588
 10
235.1536609186504
 20
22.56664782659588
 10
234.8297492790387
 20
21.38093329447545
 10
234.8297492790387
 20
21.38093329447545
 97
        0
 72
     4
 94
        3
 73
     0
 74
     0
 95
        8
 96
        4
 40
9.0
 40
9.0
 40
9.0
 40
9.0
 40
10.0
 40
10.0
 40
10.0
 40
10.0
 10
234.8297492790387
 20
21.38093329447545
 10
234.8297492790387
 20
21.38093329447545
 10
235.4483881165608
 20
19.22713932858048
 10
235.4483881165608
 20
19.22713932858048
 97
        0
 72
     4
 94
        3
 73
     0
 74
     0
 95
        8
 96
        4
 40
10.0
 40
10.0
 40
10.0
 40
10.0
 40
11.0
 40
11.0
 40
11.0
 40
11.0
 10
235.4483881165608
 20
19.22713932858048
 10
235.4483881165608
 20
19.22713932858048
 10
236.8636860593611
 20
19.22713932858048
 10
236.8636860593611
 20
19.22713932858048
 97
        0
 97
       13
330
2921F
330
29220
330
29221
330
29215
330
29216
330
29217
330
29218
330
29219
330
2921A
330
2921B
330
2921C
330
2921D
330
2921E
 75
     1
 76
     1
 47
0.0269459378258844
 98
        1
 10
235.7150328296965
 20
21.24708010342791
450
        0
451
        0
460
0.0
461
0.0
452
        0
462
1.0
453
        2
463
0.0
 63
     5
421
      255
463
1.0
 63
     2
421
 16776960
470
LINEAR
1001
GRADIENTCOLOR1ACI
1070
     5
1001
GRADIENTCOLOR2ACI
1070
     2
1001
ACAD
1010
0.0
1020
0.0
1030
0.0
  0
HATCH
  5
2923A
330
2
100
AcDbEntity
  8
0
  6
Continuous
 62
     0
100
AcDbHatch
 10
0.0
 20
0.0
 30
0.0
210
0.0
220
0.0
230
0.9999999999999998
  2
SOLID
 70
     1
 71
     1
 91
        1
 92
        5
 93
        1
 72
     4
 94
        3
 73
     0
 74
     0
 95
       17
 96
       13
 40
0.0
 40
0.0
 40
0.0
 40
0.0
 40
1.0
 40
1.0
 40
1.0
 40
2.0
 40
2.0
 40
2.0
 40
3.0
 40
3.0
 40
3.0
 40
4.0
 40
4.0
 40
4.0
 40
4.0
 10
239.0302296986123
 20
19.29998155526998
 10
239.0302296986123
 20
19.29998155526998
 10
237.360117644926
 20
19.29998155526998
 10
237.360117644926
 20
19.29998155526998
 10
237.360117644926
 20
19.29998155526998
 10
238.8081949584476
 20
24.70867624437805
 10
238.8081949584476
 20
24.70867624437805
 10
238.8081949584476
 20
24.70867624437805
 10
240.478186962581
 20
24.70867624437805
 10
240.478186962581
 20
24.70867624437805
 10
240.478186962581
 20
24.70867624437805
 10
239.0302296986123
 20
19.29998155526998
 10
239.0302296986123
 20
19.29998155526998
 97
        0
 97
        1
330
283D7
 75
     1
 76
     1
 47
0.0269459378258844
 98
        1
 10
238.335837961352
 20
20.77745769381764
450
        0
451
        0
460
0.0
461
0.0
452
        0
462
1.0
453
        2
463
0.0
 63
     5
421
      255
463
1.0
 63
     2
421
 16776960
470
LINEAR
1001
GRADIENTCOLOR1ACI
1070
     5
1001
GRADIENTCOLOR2ACI
1070
     2
1001
ACAD
1010
0.0
1020
0.0
1030
0.0
  0
HATCH
  5
2924F
330
2
100
AcDbEntity
  8
0
  6
Continuous
 62
     0
100
AcDbHatch
 10
0.0
 20
0.0
 30
0.0
210
0.0
220
0.0
230
0.9999999999999998
  2
SOLID
 70
     1
 71
     1
 91
        2
 92
        5
 93
        4
 72
     4
 94
        3
 73
     0
 74
     0
 95
        8
 96
        4
 40
0.0
 40
0.0
 40
0.0
 40
0.0
 40
1.0
 40
1.0
 40
1.0
 40
1.0
 10
244.2016699888815
 20
21.49309427510605
 10
244.2016699888815
 20
20.09143864991123
 10
245.1616063095947
 20
19.01714211365301
 10
246.8222961444286
 20
19.01714211365301
 97
        0
 72
     4
 94
        3
 73
     0
 74
     0
 95
        8
 96
        4
 40
3.0
 40
3.0
 40
3.0
 40
3.0
 40
4.0
 40
4.0
 40
4.0
 40
4.0
 10
246.8222961444286
 20
19.01714211365301
 10
249.0240869263591
 20
19.01714211365301
 10
250.1591893360593
 20
20.70077531813356
 10
250.1591893360593
 20
22.22445876168296
 97
        0
 72
     4
 94
        3
 73
     0
 74
     0
 95
        8
 96
        4
 40
2.0
 40
2.0
 40
2.0
 40
2.0
 40
3.0
 40
3.0
 40
3.0
 40
3.0
 10
250.1591893360593
 20
22.22445876168296
 10
250.1591893360593
 20
23.58825518539628
 10
249.1994016122998
 20
24.7157758481455
 10
247.47005998487
 20
24.7157758481455
 97
        0
 72
     4
 94
        3
 73
     0
 74
     0
 95
        8
 96
        4
 40
1.0
 40
1.0
 40
1.0
 40
1.0
 40
2.0
 40
2.0
 40
2.0
 40
2.0
 10
247.47005998487
 20
24.7157758481455
 10
245.3444400013912
 20
24.7157758481455
 10
244.2016699888815
 20
23.02432644390192
 10
244.2016699888815
 20
21.49309427510605
 97
        0
 97
        1
330
283DE
 92
       20
 93
        4
 72
     4
 94
        3
 73
     0
 74
     0
 95
        8
 96
        4
 40
2.0
 40
2.0
 40
2.0
 40
2.0
 40
3.0
 40
3.0
 40
3.0
 40
3.0
 10
246.9215291900898
 20
20.31231316184737
 10
246.3577820672537
 20
20.31231316184737
 10
245.8700571459155
 20
20.68567786764069
 10
245.8700571459155
 20
21.47799682461318
 97
        0
 72
     4
 94
        3
 73
     0
 74
     0
 95
        8
 96
        4
 40
1.0
 40
1.0
 40
1.0
 40
1.0
 40
2.0
 40
2.0
 40
2.0
 40
2.0
 10
245.8700571459155
 20
21.47799682461318
 10
245.8700571459155
 20
22.30081114626944
 10
246.4416515471238
 20
23.48158898973764
 10
247.4853060323167
 20
23.48158898973764
 97
        0
 72
     4
 94
        3
 73
     0
 74
     0
 95
        8
 96
        4
 40
0.0
 40
0.0
 40
0.0
 40
0.0
 40
1.0
 40
1.0
 40
1.0
 40
1.0
 10
247.4853060323167
 20
23.48158898973764
 10
248.0338368270969
 20
23.48158898973764
 10
248.5061968234257
 20
23.10837288089808
 10
248.5061968234257
 20
22.32357292978132
 97
        0
 72
     4
 94
        3
 73
     0
 74
     0
 95
        8
 96
        4
 40
3.0
 40
3.0
 40
3.0
 40
3.0
 40
4.0
 40
4.0
 40
4.0
 40
4.0
 10
248.5061968234257
 20
22.32357292978132
 10
248.5061968234257
 20
21.53895129500892
 10
248.0492314714974
 20
20.31231316184737
 10
246.9215291900898
 20
20.31231316184737
 97
        0
 97
        1
330
283DD
 75
     1
 76
     1
 47
0.0269459378258844
 98
        2
 10
245.3487519412343
 20
20.66908413451475
 10
245.3487519412343
 20
20.66908413451475
450
        0
451
        0
460
0.0
461
0.0
452
        0
462
1.0
453
        2
463
0.0
 63
     5
421
      255
463
1.0
 63
     2
421
 16776960
470
LINEAR
1001
GRADIENTCOLOR1ACI
1070
     5
1001
GRADIENTCOLOR2ACI
1070
     2
1001
ACAD
1010
0.0
1020
0.0
1030
0.0
  0
HATCH
  5
29296
330
2
100
AcDbEntity
  8
0
  6
Continuous
 62
     0
100
AcDbHatch
 10
0.0
 20
0.0
 30
0.0
210
0.0
220
0.0
230
0.9999999999999998
  2
SOLID
 70
     1
 71
     1
 91
        2
 92
        5
 93
        4
 72
     4
 94
        3
 73
     0
 74
     0
 95
        8
 96
        4
 40
0.0
 40
0.0
 40
0.0
 40
0.0
 40
1.0
 40
1.0
 40
1.0
 40
1.0
 10
250.3452327220549
 20
21.49309427510605
 10
250.3452327220549
 20
20.09143864991123
 10
251.3052879203311
 20
19.01714211365301
 10
252.9658291582113
 20
19.01714211365301
 97
        0
 72
     4
 94
        3
 73
     0
 74
     0
 95
        8
 96
        4
 40
3.0
 40
3.0
 40
3.0
 40
3.0
 40
4.0
 40
4.0
 40
4.0
 40
4.0
 10
252.9658291582113
 20
19.01714211365301
 10
255.1676496595326
 20
19.01714211365301
 10
256.3027520692327
 20
20.70077531813356
 10
256.3027520692327
 20
22.22445876168296
 97
        0
 72
     4
 94
        3
 73
     0
 74
     0
 95
        8
 96
        4
 40
2.0
 40
2.0
 40
2.0
 40
2.0
 40
3.0
 40
3.0
 40
3.0
 40
3.0
 10
256.3027520692327
 20
22.22445876168296
 10
256.3027520692327
 20
23.58825518539628
 10
255.3428157485197
 20
24.7157758481455
 10
253.6136227180437
 20
24.7157758481455
 97
        0
 72
     4
 94
        3
 73
     0
 74
     0
 95
        8
 96
        4
 40
1.0
 40
1.0
 40
1.0
 40
1.0
 40
2.0
 40
2.0
 40
2.0
 40
2.0
 10
253.6136227180437
 20
24.7157758481455
 10
251.487854137611
 20
24.7157758481455
 10
250.3452327220549
 20
23.02432644390192
 10
250.3452327220549
 20
21.49309427510605
 97
        0
 97
        1
330
283E1
 92
       20
 93
        4
 72
     4
 94
        3
 73
     0
 74
     0
 95
        8
 96
        4
 40
2.0
 40
2.0
 40
2.0
 40
2.0
 40
3.0
 40
3.0
 40
3.0
 40
3.0
 10
253.0647947293561
 20
20.31231316184737
 10
252.5010476065198
 20
20.31231316184737
 10
252.0137402566331
 20
20.68567786764069
 10
252.0137402566331
 20
21.47799682461318
 97
        0
 72
     4
 94
        3
 73
     0
 74
     0
 95
        8
 96
        4
 40
1.0
 40
1.0
 40
1.0
 40
1.0
 40
2.0
 40
2.0
 40
2.0
 40
2.0
 10
252.0137402566331
 20
21.47799682461318
 10
252.0137402566331
 20
22.30081114626944
 10
252.5850643241252
 20
23.48158898973764
 10
253.6284229746292
 20
23.48158898973764
 97
        0
 72
     4
 94
        3
 73
     0
 74
     0
 95
        8
 96
        4
 40
0.0
 40
0.0
 40
0.0
 40
0.0
 40
1.0
 40
1.0
 40
1.0
 40
1.0
 10
253.6284229746292
 20
23.48158898973764
 10
254.1772509633169
 20
23.48158898973764
 10
254.6496109596456
 20
23.10837288089808
 10
254.6496109596456
 20
22.32357292978132
 97
        0
 72
     4
 94
        3
 73
     0
 74
     0
 95
        8
 96
        4
 40
3.0
 40
3.0
 40
3.0
 40
3.0
 40
4.0
 40
4.0
 40
4.0
 40
4.0
 10
254.6496109596456
 20
22.32357292978132
 10
254.6496109596456
 20
21.53895129500892
 10
254.1923484138098
 20
20.31231316184737
 10
253.0647947293561
 20
20.31231316184737
 97
        0
 97
        1
330
283E0
 75
     1
 76
     1
 47
0.0269459378258844
 98
        2
 10
251.9098027589528
 20
21.10258150255277
 10
251.9098027589528
 20
21.10258150255277
450
        0
451
        0
460
0.0
461
0.0
452
        0
462
1.0
453
        2
463
0.0
 63
     5
421
      255
463
1.0
 63
     2
421
 16776960
470
LINEAR
1001
GRADIENTCOLOR1ACI
1070
     5
1001
GRADIENTCOLOR2ACI
1070
     2
1001
ACAD
1010
0.0
1020
0.0
1030
0.0
  0
HATCH
  5
2929D
330
2
100
AcDbEntity
  8
0
  6
Continuous
 62
     0
100
AcDbHatch
 10
0.0
 20
0.0
 30
0.0
210
0.0
220
0.0
230
0.9999999999999998
  2
SOLID
 70
     1
 71
     0
 91
        1
 92
        5
 93
        1
 72
     4
 94
        3
 73
     0
 74
     0
 95
       41
 96
       37
 40
0.0
 40
0.0
 40
0.0
 40
0.0
 40
1.0
 40
1.0
 40
1.0
 40
2.0
 40
2.0
 40
2.0
 40
3.0
 40
3.0
 40
3.0
 40
4.0
 40
4.0
 40
4.0
 40
5.0
 40
5.0
 40
5.0
 40
6.0
 40
6.0
 40
6.0
 40
7.0
 40
7.0
 40
7.0
 40
8.0
 40
8.0
 40
8.0
 40
9.0
 40
9.0
 40
9.0
 40
10.0
 40
10.0
 40
10.0
 40
11.0
 40
11.0
 40
11.0
 40
12.0
 40
12.0
 40
12.0
 40
12.0
 10
227.5923346505039
 20
19.29998155526998
 10
227.5923346505039
 20
19.29998155526998
 10
225.8380287348576
 20
19.29998155526998
 10
225.8380287348576
 20
19.29998155526998
 10
225.8380287348576
 20
19.29998155526998
 10
229.3467603710779
 20
24.71622163900658
 10
229.3467603710779
 20
24.71622163900658
 10
229.3467603710779
 20
24.71622163900658
 10
231.1548881490208
 20
24.71622163900658
 10
231.1548881490208
 20
24.71622163900658
 10
231.1548881490208
 20
24.71622163900658
 10
231.5610620891428
 20
19.29998155526998
 10
231.5610620891428
 20
19.29998155526998
 10
231.5610620891428
 20
19.29998155526998
 10
229.9291109051489
 20
19.29998155526998
 10
229.9291109051489
 20
19.29998155526998
 10
229.9291109051489
 20
19.29998155526998
 10
229.8754079660923
 20
20.17343444894676
 10
229.8754079660923
 20
20.17343444894676
 10
229.8754079660923
 20
20.17343444894676
 10
228.6924276179193
 20
20.17343444894676
 10
228.6924276179193
 20
20.17343444894676
 10
228.6924276179193
 20
20.17343444894676
 10
229.2797124982168
 20
21.29935356691016
 10
229.2797124982168
 20
21.29935356691016
 10
229.2797124982168
 20
21.29935356691016
 10
229.8218536239894
 20
21.29935356691016
 10
229.8218536239894
 20
21.29935356691016
 10
229.8218536239894
 20
21.29935356691016
 10
229.7527857599232
 20
22.88532885343829
 10
229.7527857599232
 20
22.88532885343829
 10
229.7527857599232
 20
22.88532885343829
 10
227.6010433152532
 20
19.31216650547105
 10
227.6010433152532
 20
19.31216650547105
 10
227.6010433152532
 20
19.31216650547105
 10
227.5923346505039
 20
19.29998155526998
 10
227.5923346505039
 20
19.29998155526998
 97
        0
 97
        0
 75
     1
 76
     1
 47
0.0269459378258844
 98
        1
 10
230.8891337742314
 20
21.5360788705908
450
        0
451
        0
460
0.0
461
0.0
452
        0
462
1.0
453
        2
463
0.0
 63
     5
421
      255
463
1.0
 63
     2
421
 16776960
470
LINEAR
1001
GRADIENTCOLOR1ACI
1070
     5
1001
GRADIENTCOLOR2ACI
1070
     2
1001
ACAD
1010
0.0
1020
0.0
1030
0.0
  0
SPLINE
  5
2942D
102
{ACAD_REACTORS
330
2944B
102
}
330
2
100
AcDbEntity
  8
Layer 1
100
AcDbSpline
210
0.0
220
0.0
230
1.0
 70
    24
 71
     3
 72
     8
 73
     4
 74
     0
 42
0.000000001
 43
0.0000000001
 40
0.0
 40
0.0
 40
0.0
 40
0.0
 40
1.0
 40
1.0
 40
1.0
 40
1.0
 10
225.6696981057393
 20
19.29998155526998
 30
0.0
 10
225.6696981057393
 20
19.29998155526998
 30
0.0
 10
223.9843411765961
 20
19.29998155526998
 30
0.0
 10
223.9843411765961
 20
19.29998155526998
 30
0.0
  0
SPLINE
  5
2942E
102
{ACAD_REACTORS
330
2944B
102
}
330
2
100
AcDbEntity
  8
Layer 1
100
AcDbSpline
210
0.0
220
0.0
230
1.0
 70
    24
 71
     3
 72
     8
 73
     4
 74
     0
 42
0.000000001
 43
0.0000000001
 40
1.0
 40
1.0
 40
1.0
 40
1.0
 40
2.0
 40
2.0
 40
2.0
 40
2.0
 10
223.9843411765961
 20
19.29998155526998
 30
0.0
 10
223.9843411765961
 20
19.29998155526998
 30
0.0
 10
224.7505665085042
 20
22.80883114168853
 30
0.0
 10
224.7505665085042
 20
22.80883114168853
 30
0.0
  0
SPLINE
  5
2942F
102
{ACAD_REACTORS
330
2944B
102
}
330
2
100
AcDbEntity
  8
Layer 1
100
AcDbSpline
210
0.0
220
0.0
230
1.0
 70
    24
 71
     3
 72
     8
 73
     4
 74
     0
 42
0.000000001
 43
0.0000000001
 40
2.0
 40
2.0
 40
2.0
 40
2.0
 40
3.0
 40
3.0
 40
3.0
 40
3.0
 10
224.7505665085042
 20
22.80883114168853
 30
0.0
 10
224.7505665085042
 20
22.80883114168853
 30
0.0
 10
222.4828581179253
 20
19.29998155526998
 30
0.0
 10
222.4828581179253
 20
19.29998155526998
 30
0.0
  0
SPLINE
  5
29430
102
{ACAD_REACTORS
330
2944B
102
}
330
2
100
AcDbEntity
  8
Layer 1
100
AcDbSpline
210
0.0
220
0.0
230
1.0
 70
    24
 71
     3
 72
     8
 73
     4
 74
     0
 42
0.000000001
 43
0.0000000001
 40
3.0
 40
3.0
 40
3.0
 40
3.0
 40
4.0
 40
4.0
 40
4.0
 40
4.0
 10
222.4828581179253
 20
19.29998155526998
 30
0.0
 10
222.4828581179253
 20
19.29998155526998
 30
0.0
 10
221.9465130137648
 20
19.29998155526998
 30
0.0
 10
221.9465130137648
 20
19.29998155526998
 30
0.0
  0
SPLINE
  5
29431
102
{ACAD_REACTORS
330
2944B
102
}
330
2
100
AcDbEntity
  8
Layer 1
100
AcDbSpline
210
0.0
220
0.0
230
1.0
 70
    24
 71
     3
 72
     8
 73
     4
 74
     0
 42
0.000000001
 43
0.0000000001
 40
4.0
 40
4.0
 40
4.0
 40
4.0
 40
5.0
 40
5.0
 40
5.0
 40
5.0
 10
221.9465130137648
 20
19.29998155526998
 30
0.0
 10
221.9465130137648
 20
19.29998155526998
 30
0.0
 10
221.5404866872975
 20
22.8853288534383
 30
0.0
 10
221.5404866872975
 20
22.8853288534383
 30
0.0
  0
SPLINE
  5
29432
102
{ACAD_REACTORS
330
2944B
102
}
330
2
100
AcDbEntity
  8
Layer 1
100
AcDbSpline
210
0.0
220
0.0
230
1.0
 70
    24
 71
     3
 72
     8
 73
     4
 74
     0
 42
0.000000001
 43
0.0000000001
 40
5.0
 40
5.0
 40
5.0
 40
5.0
 40
6.0
 40
6.0
 40
6.0
 40
6.0
 10
221.5404866872975
 20
22.8853288534383
 30
0.0
 10
221.5404866872975
 20
22.8853288534383
 30
0.0
 10
220.4294866754165
 20
19.29998155526998
 30
0.0
 10
220.4294866754165
 20
19.29998155526998
 30
0.0
  0
SPLINE
  5
29433
102
{ACAD_REACTORS
330
2944B
102
}
330
2
100
AcDbEntity
  8
Layer 1
100
AcDbSpline
210
0.0
220
0.0
230
1.0
 70
    24
 71
     3
 72
     8
 73
     4
 74
     0
 42
0.000000001
 43
0.0000000001
 40
6.0
 40
6.0
 40
6.0
 40
6.0
 40
7.0
 40
7.0
 40
7.0
 40
7.0
 10
220.4294866754165
 20
19.29998155526998
 30
0.0
 10
220.4294866754165
 20
19.29998155526998
 30
0.0
 10
218.7824379993219
 20
19.29998155526998
 30
0.0
 10
218.7824379993219
 20
19.29998155526998
 30
0.0
  0
SPLINE
  5
29434
102
{ACAD_REACTORS
330
2944B
102
}
330
2
100
AcDbEntity
  8
Layer 1
100
AcDbSpline
210
0.0
220
0.0
230
1.0
 70
    24
 71
     3
 72
     8
 73
     4
 74
     0
 42
0.000000001
 43
0.0000000001
 40
7.0
 40
7.0
 40
7.0
 40
7.0
 40
8.0
 40
8.0
 40
8.0
 40
8.0
 10
218.7824379993219
 20
19.29998155526998
 30
0.0
 10
218.7824379993219
 20
19.29998155526998
 30
0.0
 10
220.7511990882409
 20
24.70867624437805
 30
0.0
 10
220.7511990882409
 20
24.70867624437805
 30
0.0
  0
SPLINE
  5
29435
102
{ACAD_REACTORS
330
2944B
102
}
330
2
100
AcDbEntity
  8
Layer 1
100
AcDbSpline
210
0.0
220
0.0
230
1.0
 70
    24
 71
     3
 72
     8
 73
     4
 74
     0
 42
0.000000001
 43
0.0000000001
 40
8.0
 40
8.0
 40
8.0
 40
8.0
 40
9.0
 40
9.0
 40
9.0
 40
9.0
 10
220.7511990882409
 20
24.70867624437805
 30
0.0
 10
220.7511990882409
 20
24.70867624437805
 30
0.0
 10
222.5365618123065
 20
24.70867624437805
 30
0.0
 10
222.5365618123065
 20
24.70867624437805
 30
0.0
  0
SPLINE
  5
29436
102
{ACAD_REACTORS
330
2944B
102
}
330
2
100
AcDbEntity
  8
Layer 1
100
AcDbSpline
210
0.0
220
0.0
230
1.0
 70
    24
 71
     3
 72
     8
 73
     4
 74
     0
 42
0.000000001
 43
0.0000000001
 40
9.0
 40
9.0
 40
9.0
 40
9.0
 40
10.0
 40
10.0
 40
10.0
 40
10.0
 10
222.5365618123065
 20
24.70867624437805
 30
0.0
 10
222.5365618123065
 20
24.70867624437805
 30
0.0
 10
222.8656735899718
 20
21.73631776887439
 30
0.0
 10
222.8656735899718
 20
21.73631776887439
 30
0.0
  0
SPLINE
  5
29437
102
{ACAD_REACTORS
330
2944B
102
}
330
2
100
AcDbEntity
  8
Layer 1
100
AcDbSpline
210
0.0
220
0.0
230
1.0
 70
    24
 71
     3
 72
     8
 73
     4
 74
     0
 42
0.000000001
 43
0.0000000001
 40
10.0
 40
10.0
 40
10.0
 40
10.0
 40
11.0
 40
11.0
 40
11.0
 40
11.0
 10
222.8656735899718
 20
21.73631776887439
 30
0.0
 10
222.8656735899718
 20
21.73631776887439
 30
0.0
 10
224.7350232671501
 20
24.70867624437805
 30
0.0
 10
224.7350232671501
 20
24.70867624437805
 30
0.0
  0
SPLINE
  5
29438
102
{ACAD_REACTORS
330
2944B
102
}
330
2
100
AcDbEntity
  8
Layer 1
100
AcDbSpline
210
0.0
220
0.0
230
1.0
 70
    24
 71
     3
 72
     8
 73
     4
 74
     0
 42
0.000000001
 43
0.0000000001
 40
11.0
 40
11.0
 40
11.0
 40
11.0
 40
12.0
 40
12.0
 40
12.0
 40
12.0
 10
224.7350232671501
 20
24.70867624437805
 30
0.0
 10
224.7350232671501
 20
24.70867624437805
 30
0.0
 10
226.55099691857
 20
24.70867624437805
 30
0.0
 10
226.55099691857
 20
24.70867624437805
 30
0.0
  0
SPLINE
  5
29439
102
{ACAD_REACTORS
330
2944B
102
}
330
2
100
AcDbEntity
  8
Layer 1
100
AcDbSpline
210
0.0
220
0.0
230
1.0
 70
    24
 71
     3
 72
     8
 73
     4
 74
     0
 42
0.000000001
 43
0.0000000001
 40
12.0
 40
12.0
 40
12.0
 40
12.0
 40
13.0
 40
13.0
 40
13.0
 40
13.0
 10
226.55099691857
 20
24.70867624437805
 30
0.0
 10
226.55099691857
 20
24.70867624437805
 30
0.0
 10
225.6696981057393
 20
19.29998155526998
 30
0.0
 10
225.6696981057393
 20
19.29998155526998
 30
0.0
  0
HATCH
  5
2944B
330
2
100
AcDbEntity
  8
0
  6
Continuous
 62
     0
100
AcDbHatch
 10
0.0
 20
0.0
 30
0.0
210
0.0
220
0.0
230
0.9999999999999998
  2
SOLID
 70
     1
 71
     1
 91
        1
 92
        5
 93
       13
 72
     4
 94
        3
 73
     0
 74
     0
 95
        8
 96
        4
 40
1.0
 40
1.0
 40
1.0
 40
1.0
 40
2.0
 40
2.0
 40
2.0
 40
2.0
 10
224.7505665085042
 20
22.80883114168853
 10
224.7505665085042
 20
22.80883114168853
 10
223.9843411765961
 20
19.29998155526998
 10
223.9843411765961
 20
19.29998155526998
 97
        0
 72
     4
 94
        3
 73
     0
 74
     0
 95
        8
 96
        4
 40
0.0
 40
0.0
 40
0.0
 40
0.0
 40
1.0
 40
1.0
 40
1.0
 40
1.0
 10
223.9843411765961
 20
19.29998155526998
 10
223.9843411765961
 20
19.29998155526998
 10
225.6696981057393
 20
19.29998155526998
 10
225.6696981057393
 20
19.29998155526998
 97
        0
 72
     4
 94
        3
 73
     0
 74
     0
 95
        8
 96
        4
 40
12.0
 40
12.0
 40
12.0
 40
12.0
 40
13.0
 40
13.0
 40
13.0
 40
13.0
 10
225.6696981057393
 20
19.29998155526998
 10
225.6696981057393
 20
19.29998155526998
 10
226.55099691857
 20
24.70867624437805
 10
226.55099691857
 20
24.70867624437805
 97
        0
 72
     4
 94
        3
 73
     0
 74
     0
 95
        8
 96
        4
 40
11.0
 40
11.0
 40
11.0
 40
11.0
 40
12.0
 40
12.0
 40
12.0
 40
12.0
 10
226.55099691857
 20
24.70867624437805
 10
226.55099691857
 20
24.70867624437805
 10
224.7350232671501
 20
24.70867624437805
 10
224.7350232671501
 20
24.70867624437805
 97
        0
 72
     4
 94
        3
 73
     0
 74
     0
 95
        8
 96
        4
 40
10.0
 40
10.0
 40
10.0
 40
10.0
 40
11.0
 40
11.0
 40
11.0
 40
11.0
 10
224.7350232671501
 20
24.70867624437805
 10
224.7350232671501
 20
24.70867624437805
 10
222.8656735899718
 20
21.73631776887439
 10
222.8656735899718
 20
21.73631776887439
 97
        0
 72
     4
 94
        3
 73
     0
 74
     0
 95
        8
 96
        4
 40
9.0
 40
9.0
 40
9.0
 40
9.0
 40
10.0
 40
10.0
 40
10.0
 40
10.0
 10
222.8656735899718
 20
21.73631776887439
 10
222.8656735899718
 20
21.73631776887439
 10
222.5365618123065
 20
24.70867624437805
 10
222.5365618123065
 20
24.70867624437805
 97
        0
 72
     4
 94
        3
 73
     0
 74
     0
 95
        8
 96
        4
 40
8.0
 40
8.0
 40
8.0
 40
8.0
 40
9.0
 40
9.0
 40
9.0
 40
9.0
 10
222.5365618123065
 20
24.70867624437805
 10
222.5365618123065
 20
24.70867624437805
 10
220.7511990882409
 20
24.70867624437805
 10
220.7511990882409
 20
24.70867624437805
 97
        0
 72
     4
 94
        3
 73
     0
 74
     0
 95
        8
 96
        4
 40
7.0
 40
7.0
 40
7.0
 40
7.0
 40
8.0
 40
8.0
 40
8.0
 40
8.0
 10
220.7511990882409
 20
24.70867624437805
 10
220.7511990882409
 20
24.70867624437805
 10
218.7824379993219
 20
19.29998155526998
 10
218.7824379993219
 20
19.29998155526998
 97
        0
 72
     4
 94
        3
 73
     0
 74
     0
 95
        8
 96
        4
 40
6.0
 40
6.0
 40
6.0
 40
6.0
 40
7.0
 40
7.0
 40
7.0
 40
7.0
 10
218.7824379993219
 20
19.29998155526998
 10
218.7824379993219
 20
19.29998155526998
 10
220.4294866754165
 20
19.29998155526998
 10
220.4294866754165
 20
19.29998155526998
 97
        0
 72
     4
 94
        3
 73
     0
 74
     0
 95
        8
 96
        4
 40
5.0
 40
5.0
 40
5.0
 40
5.0
 40
6.0
 40
6.0
 40
6.0
 40
6.0
 10
220.4294866754165
 20
19.29998155526998
 10
220.4294866754165
 20
19.29998155526998
 10
221.5404866872975
 20
22.8853288534383
 10
221.5404866872975
 20
22.8853288534383
 97
        0
 72
     4
 94
        3
 73
     0
 74
     0
 95
        8
 96
        4
 40
4.0
 40
4.0
 40
4.0
 40
4.0
 40
5.0
 40
5.0
 40
5.0
 40
5.0
 10
221.5404866872975
 20
22.8853288534383
 10
221.5404866872975
 20
22.8853288534383
 10
221.9465130137648
 20
19.29998155526998
 10
221.9465130137648
 20
19.29998155526998
 97
        0
 72
     4
 94
        3
 73
     0
 74
     0
 95
        8
 96
        4
 40
3.0
 40
3.0
 40
3.0
 40
3.0
 40
4.0
 40
4.0
 40
4.0
 40
4.0
 10
221.9465130137648
 20
19.29998155526998
 10
221.9465130137648
 20
19.29998155526998
 10
222.4828581179253
 20
19.29998155526998
 10
222.4828581179253
 20
19.29998155526998
 97
        0
 72
     4
 94
        3
 73
     0
 74
     0
 95
        8
 96
        4
 40
2.0
 40
2.0
 40
2.0
 40
2.0
 40
3.0
 40
3.0
 40
3.0
 40
3.0
 10
222.4828581179253
 20
19.29998155526998
 10
222.4828581179253
 20
19.29998155526998
 10
224.7505665085042
 20
22.80883114168853
 10
224.7505665085042
 20
22.80883114168853
 97
        0
 97
       13
330
29439
330
29438
330
29437
330
29436
330
29435
330
29434
330
29433
330
29432
330
29431
330
29430
330
2942F
330
2942E
330
2942D
 75
     1
 76
     1
 47
0.0269459378258844
 98
        1
 10
224.8483211240657
 20
21.13885995462337
450
        0
451
        0
460
0.0
461
0.0
452
        0
462
1.0
453
        2
463
0.0
 63
     5
421
      255
463
1.0
 63
     2
421
 16776960
470
LINEAR
1001
GRADIENTCOLOR1ACI
1070
     5
1001
GRADIENTCOLOR2ACI
1070
     2
1001
ACAD
1010
0.0
1020
0.0
1030
0.0
  0
MULTILEADER
  5
3731F
330
2
100
AcDbEntity
  8
0
  6
Continuous
 62
     7
160
               688
310
B0020000180000000C00000016000000020000C30C00000033000000000000000C00000013000000993A00000C00000016000000020000C3D400000026000000508E3F9FCB393F40AE89420F37BD6040000000000000000000000000000000000000000000000000000000000000F03F000000000000F03F00000000000000
310
0000000000000000004400530046003100360020005400610070006500720000000B000000010000000000000000000440000000000000F03F0000000000000000000000000000F03F0000000000000000000000000000000000000000000000000000000001000000000000000000000072006F006D0061006E0073002E00
310
73006800780000006900000000000C00000033000000000000000C00000010000000000000000C00000016000000030000C30C00000012000000000000000C00000013000000010000000C0000001400000001000000540000000700000003000000507DC3759EA44C401608CAC0CD695C40000000000000000030E8C9572A
310
214C40001E817F82D55B40000000000000000094CFD29C523D4C40213D0AC91A775C4000000000000000000C000000130000008913000054000000060000000300000072264B89F8704C409B22EA4474705C40000000000000000090B75E8FDA244F405834EDB9E1D7604000000000000000007059C41878414C405834EDB9
310
E1D7604000000000000000000C00000013000000122700003C00000006000000020000007059C41878414C405834EDB9E1D7604000000000000000007059C41878014C405834EDB9E1D7604000000000000000000C00000016000000030000C30C00000012000000000000000C00000017000000000000000C000000130000
310
009A3A00000C00000016000000070000C30C00000012000000000000000C00000017000000FFFFFFFF0C0000003300000000000000
100
AcDbMLeader
270
     2
300
CONTEXT_DATA{
 40
1.0
 10
31.20195375230645
 20
134.7463044770145
 30
0.0
 41
2.5
140
2.5
145
0.5
174
     2
175
     2
176
     2
177
     1
290
     1
304
DSF16 Taper
 11
0.0
 21
0.0
 31
1.0
340
35
 12
55.51147756183024
 22
136.4129711436812
 32
0.0
 13
1.0
 23
0.0
 33
0.0
 42
0.0
 43
24.31071428571428
 44
0.0
 45
1.0
170
     1
 90
-1023410174
171
     3
172
     5
 91
-1073741824
141
0.0
 92
 14025060
291
     0
292
     0
173
     0
293
     0
142
0.0
143
0.0
294
     0
295
     0
296
     0
110
18.41564594617455
120
170.5099038295841
130
0.0
111
1.0
121
0.0
131
0.0
112
0.0
122
1.0
132
0.0
297
     0
302
LEADER{
290
     1
291
     1
 10
56.51147756183025
 20
134.7463044770145
 30
0.0
 11
-1.0
 21
0.0
 31
0.0
 90
        1
 40
0.5
304
LEADER_LINE{
 10
56.2591047035097
 20
111.3360899697218
 30
0.0
 10
62.28791992306572
 20
134.7463044770145
 30
0.0
 91
        0
305
}
271
     0
303
}
272
     9
273
     9
301
}
340
BD9
 90
   279552
170
     1
 91
-1023410173
341
28
171
    -1
290
     1
291
     1
 41
0.5
 42
2.5
172
     2
343
35
173
     2
 95
        2
174
     1
175
     0
 92
-1023410174
292
     0
 93
-1023410174
 10
1.0
 20
1.0
 30
1.0
 43
0.0
176
     1
293
     0
294
     0
178
     0
179
     1
 45
1.0
271
     0
272
     9
273
     9
295
     0
  0
DIMENSION
  5
37320
330
2
100
AcDbEntity
  8
0
  6
Continuous
 62
     7
100
AcDbDimension
280
     0
  2
*D0
 10
62.47131888208777
 20
77.84888441365319
 30
0.0
 11
62.47131888208776
 21
91.42358913806175
 31
0.0
 70
   160
  1
%%c1.551
 71
     5
 42
39.5
 73
     0
 74
     0
 75
     0
  3
Standard$0
100
AcDbAlignedDimension
 13
74.02788526638494
 23
117.3488844136532
 33
0.0
 14
74.02788526638494
 24
77.84888441365319
 34
0.0
 50
90.0
100
AcDbRotatedDimension
1001
ACAD
1000
DSTYLE
1002
{
1070
    42
1040
0.625
1070
    43
1040
3.75
1070
    44
1040
1.25
1070
    48
1040
0.000000001
1070
    74
1070
     0
1070
    75
1070
     1
1070
    77
1070
     1
1070
    90
1070
     1
1070
   140
1040
3.0
1070
   141
1040
-0.5
1070
   143
1040
0.03937007874016
1070
   146
1040
0.7
1070
   147
1040
0.625
1070
   171
1070
     3
1070
   172
1070
     1
1070
   175
1070
     0
1070
   274
1070
     3
1070
   281
1070
     1
1070
   283
1070
     0
1070
   284
1070
     8
1070
   340
1005
25
1070
   371
1070
    -1
1070
   372
1070
    -1
1002
}
  0
MULTILEADER
  5
37321
330
2
100
AcDbEntity
  8
0
  6
Continuous
 62
     7
160
               680
310
A8020000180000000C00000016000000020000C30C00000033000000000000000C00000013000000993A00000C00000016000000020000C3CC00000026000000329FBE8E01143140E8D53827015D5E40000000000000000000000000000000000000000000000000000000000000F03F000000000000F03F00000000000000
310
0000000000000000004D0031003000780031002E003500000007000000010000000000000000000440000000000000F03F0000000000000000000000000000F03F0000000000000000000000000000000000000000000000000000000001000000000000000000000072006F006D0061006E0073002E007300680078000000
310
3000000054000C00000033000000000000000C00000010000000000000000C00000016000000030000C30C00000012000000000000000C00000013000000010000000C0000001400000001000000540000000700000003000000344014D932944340409A87E762475A40000000000000000090974780BFBA434020AE4A1F54
310
A65940000000000000000024365EFFCF2D434030E02FE46D385A4000000000000000000C00000013000000891300005400000006000000030000002C3B396C0161434038BDDB65E83F5A400000000000000000200F1144E4CA4040E8D5382701AD5E40000000000000000080C9FDAE7AA84040E8D5382701AD5E4000000000
310
000000000C00000013000000112700003C000000060000000200000080C9FDAE7AA84040E8D5382701AD5E40000000000000000080C9FDAE7A684040E8D5382701AD5E4000000000000000000C00000016000000030000C30C00000012000000000000000C00000017000000000000000C000000130000009A3A00000C0000
310
0016000000070000C30C00000012000000000000000C00000017000000FFFFFFFF0C0000003300000000000000
100
AcDbMLeader
270
     2
300
CONTEXT_DATA{
 40
1.0
 10
17.0543392432217
 20
122.703195386413
 30
0.0
 41
2.5
140
2.5
145
0.5
174
     2
175
     2
176
     2
177
     1
290
     1
304
M10x1.5
 11
0.0
 21
0.0
 31
1.0
340
35
 12
32.31624400512647
 22
123.9531953864131
 32
0.0
 13
1.0
 23
0.0
 33
0.0
 42
0.0
 43
16.19047619047619
 44
0.0
 45
1.0
170
     1
 90
-1023410174
171
     3
172
     5
 91
-939524096
141
1.5
 92
        0
291
     0
292
     0
173
     0
293
     0
142
0.0
143
0.0
294
     0
295
     0
296
     0
110
1.384078446933187
120
99.05893779583585
130
0.0
111
1.0
121
0.0
131
0.0
112
0.0
122
1.0
132
0.0
297
     0
302
LEADER{
290
     1
291
     1
 10
33.31624400512647
 20
122.703195386413
 30
0.0
 11
-1.0
 21
0.0
 31
0.0
 90
        0
 40
0.5
304
LEADER_LINE{
 10
39.45896914954858
 20
102.5988844136523
 30
0.0
 10
33.58509112198794
 20
122.703195386413
 30
0.0
 91
        0
305
}
271
     0
303
}
272
     9
273
     9
301
}
340
BD9
 90
   314368
170
     1
 91
-1023410173
341
28
171
    -1
290
     1
291
     1
 41
0.5
 42
2.5
172
     2
343
35
173
     2
 95
        2
174
     1
175
     0
 92
-1023410174
292
     0
 93
-1023410174
 10
1.0
 20
1.0
 30
1.0
 43
0.0
176
     1
293
     0
294
     0
178
     0
179
     1
 45
1.0
271
     0
272
     9
273
     9
295
     0
  0
LINE
  5
37322
330
2
100
AcDbEntity
  8
0
  6
Continuous
 62
     3
100
AcDbLine
 10
73.52788526638426
 20
77.72388441365274
 30
0.0
 11
73.52788526638426
 21
58.23174591989084
 31
0.0
  0
MTEXT
  5
37323
330
2
100
AcDbEntity
  8
0
  6
Continuous
 62
     2
100
AcDbMText
 10
73.52841943553187
 20
55.78293081609479
 30
0.0
 40
3.0
 41
0.0
 46
0.0
 71
     5
 72
     1
  1
0.00
 73
     1
 44
1.0
  0
LINE
  5
37324
330
2
100
AcDbEntity
  8
0
  6
Continuous
 62
     3
100
AcDbLine
 10
26.52788526638494
 20
85.14769801282625
 30
0.0
 11
26.52788526638494
 21
58.23174591989084
 31
0.0
  0
MTEXT
  5
37327
330
2
100
AcDbEntity
  8
0
  6
Continuous
 62
     2
100
AcDbMText
 10
26.43965194387158
 20
55.71855361313009
 30
0.0
 40
3.0
 41
0.0
 46
0.0
 71
     5
 72
     1
  1
1.85
 73
     1
 44
1.0
  0
LINE
  5
37328
330
2
100
AcDbEntity
  8
0
  6
Continuous
 62
     3
100
AcDbLine
 10
79.02788526638528
 20
77.72388441365274
 30
0.0
 11
79.02788526638528
 21
63.53556404916844
 31
0.0
  0
MTEXT
  5
37329
330
2
100
AcDbEntity
  8
0
  6
Continuous
 62
     2
100
AcDbMText
 10
79.0284194355329
 20
61.27515220218811
 30
0.0
 40
3.0
 41
0.0
 46
0.0
 71
     5
 72
     1
  1
0.216
 73
     1
 44
1.0
  0
LINE
  5
374FF
330
2
100
AcDbEntity
  8
0
  6
Continuous
 62
     3
100
AcDbLine
 10
175.1278852663858
 20
82.26079616291981
 30
0.0
 11
175.1278852663858
 21
58.23174591989084
 31
0.0
  0
MTEXT
  5
37500
330
2
100
AcDbEntity
  8
0
  6
Continuous
 62
     2
100
AcDbMText
 10
175.1284194355335
 20
55.78293081609479
 30
0.0
 40
3.0
 41
0.0
 46
0.0
 71
     5
 72
     1
  1
4.0
 73
     1
 44
1.0
  0
DIMENSION
  5
39003
330
2
100
AcDbEntity
  8
0
  6
Continuous
 62
     7
100
AcDbDimension
280
     0
  2
*D1
 10
205.5339083343706
 20
82.1048844136526
 30
0.0
 11
203.40861305878
 21
97.59888441365232
 31
0.0
 70
    32
  1
%%C1.22
 71
     5
 42
30.98799999999938
 73
     0
 74
     0
 75
     0
  3
Standard$0
100
AcDbAlignedDimension
 13
174.6278852663849
 23
113.0928844136519
 33
0.0
 14
174.6278852663859
 24
82.1048844136526
 34
0.0
 50
90.0
100
AcDbRotatedDimension
1001
ACAD
1000
DSTYLE
1002
{
1070
    76
1070
     0
1070
   282
1070
     0
1070
    42
1040
0.625
1070
    43
1040
3.75
1070
    44
1040
1.25
1070
    48
1040
0.000000001
1070
    74
1070
     0
1070
    77
1070
     1
1070
    90
1070
     1
1070
   140
1040
3.0
1070
   141
1040
-0.5
1070
   143
1040
0.03937007874016
1070
   146
1040
0.7
1070
   147
1040
0.625
1070
   171
1070
     3
1070
   172
1070
     1
1070
   175
1070
     0
1070
   274
1070
     3
1070
   283
1070
     0
1070
   284
1070
     8
1070
   340
1005
25
1070
   371
1070
    -1
1070
   372
1070
    -1
1002
}
  0
DIMENSION
  5
39005
330
2
100
AcDbEntity
  8
0
  6
Continuous
 62
     7
100
AcDbDimension
280
     0
  2
*D2
 10
197.533908334362
 20
106.0988844136532
 30
0.0
 11
197.5339083343619
 21
94.27982443458722
 31
0.0
 70
   160
  1
%%C<>{\H1x;mm}
 71
     5
 42
17.00000000000091
 73
     0
 74
     0
 75
     0
  3
Standard$0
100
AcDbAlignedDimension
 13
174.1278852663849
 23
89.09888441365229
 33
0.0
 14
174.1278852663849
 24
106.0988844136532
 34
0.0
 50
90.0
100
AcDbRotatedDimension
1001
ACAD
1000
DSTYLE
1002
{
1070
    42
1040
0.625
1070
    43
1040
3.75
1070
    44
1040
1.25
1070
    47
1040
0.005
1070
    48
1040
0.003
1070
    71
1070
     1
1070
    74
1070
     0
1070
    75
1070
     1
1070
    77
1070
     1
1070
    90
1070
     1
1070
   140
1040
3.0
1070
   143
1040
0.03937007874016
1070
   146
1040
0.7
1070
   147
1040
0.625
1070
   171
1070
     3
1070
   172
1070
     1
1070
   175
1070
     0
1070
   179
1070
     0
1070
   274
1070
     3
1070
   281
1070
     1
1070
   283
1070
     0
1070
   284
1070
     8
1070
   340
1005
25
1070
   371
1070
    -1
1070
   372
1070
    -1
1002
}
  0
DIMENSION
  5
39006
330
2
100
AcDbEntity
  8
0
  6
Continuous
 62
     7
100
AcDbDimension
280
     0
  2
*D4
 10
175.1278852663849
 20
134.0222784847616
 30
0.0
 11
161.127885266385
 21
136.1472784847616
 31
0.0
 70
    32
  1
1.1min
 71
     5
 42
28.0
 73
     0
 74
     0
 75
     0
  3
Standard$0
100
AcDbAlignedDimension
 13
147.1278852663849
 23
105.5988844136513
 33
0.0
 14
175.1278852663849
 24
112.592884413652
 34
0.0
100
AcDbRotatedDimension
1001
ACAD
1000
DSTYLE
1002
{
1070
    42
1040
0.625
1070
    43
1040
3.75
1070
    44
1040
1.25
1070
    48
1040
0.000000001
1070
    74
1070
     0
1070
    77
1070
     1
1070
    90
1070
     1
1070
   140
1040
3.0
1070
   143
1040
0.03937007874016
1070
   146
1040
0.7
1070
   147
1040
0.625
1070
   171
1070
     3
1070
   172
1070
     1
1070
   175
1070
     0
1070
   179
1070
     0
1070
   274
1070
     3
1070
   283
1070
     0
1070
   284
1070
     8
1070
   340
1005
25
1070
   371
1070
    -1
1070
   372
1070
    -1
1002
}
  0
DIMENSION
  5
39007
330
2
100
AcDbEntity
  8
0
  6
Continuous
 62
     7
100
AcDbDimension
280
     0
  2
*D3
 10
175.1278852663849
 20
128.1472784847616
 30
0.0
 11
170.047885266385
 21
128.1472784847616
 31
0.0
 70
   160
  1
.4
 71
     5
 42
10.15999999999985
 73
     0
 74
     0
 75
     0
  3
Standard$0
100
AcDbAlignedDimension
 13
164.9678852663851
 23
106.2258844136527
 33
0.0
 14
175.1278852663849
 24
112.592884413652
 34
0.0
100
AcDbRotatedDimension
1001
ACAD
1000
DSTYLE
1002
{
1070
    42
1040
0.625
1070
    43
1040
3.75
1070
    44
1040
1.25
1070
    48
1040
0.000000001
1070
    74
1070
     0
1070
    77
1070
     1
1070
    90
1070
     1
1070
   140
1040
3.0
1070
   143
1040
0.03937007874016
1070
   146
1040
0.7
1070
   147
1040
0.625
1070
   171
1070
     3
1070
   172
1070
     1
1070
   175
1070
     0
1070
   179
1070
     0
1070
   274
1070
     3
1070
   283
1070
     0
1070
   284
1070
     8
1070
   340
1005
25
1070
   371
1070
    -1
1070
   372
1070
    -1
1002
}
  0
MULTILEADER
  5
39009
330
2
100
AcDbEntity
  8
0
  6
Continuous
 62
     7
160
               672
310
A0020000180000000C00000016000000020000C30C00000033000000000000000C00000013000000993A00000C00000016000000020000C3DC000000260000000A33A2C1DC276E404D53EB4014C25D40000000000000000000000000000000000000000000000000000000000000F03F000000000000F03F00000000000000
310
0000000000000000004D00310036002A0032002E003000000007000000010000000000000000000840000000000000F03F0000000000000000000000000000F03F00000000000000000000000000000000000000000000000000000000010000000000000000000000690073006F00630070002E0073006800780000007700
310
680067007400780074002E00730068007800000000000C00000033000000000000000C00000010000000000000000C00000016000000030000C30C00000012000000000000000C00000013000000010000000C0000001400000001000000540000000700000003000000FE4381C596B66D40D117C314749D5A400000000000
310
000000B850F04DC7C16D40A878A532CCFC59400000000000000000FB768239249D6D40A97579E0828D5A4000000000000000000C00000013000000891300003C00000006000000020000007DDD817FDDA96D40BD469E7A7B955A400000000000000000503F0F4F8E1B6D40E8D3DEED1D225E4000000000000000000C000000
310
13000000112700003C0000000600000002000000503F0F4F8E1B6D40E8D3DEED1D225E4000000000000000007099082843F66D40E8D3DEED1D225E4000000000000000000C00000016000000030000C30C00000012000000000000000C00000017000000000000000C000000130000009A3A00000C00000016000000070000
310
C30C00000012000000000000000C00000017000000FFFFFFFF0C0000003300000000000000
100
AcDbMLeader
270
     2
300
CONTEXT_DATA{
 40
1.0
 10
239.6956978004414
 20
120.533076732259
 30
0.0
 41
3.0
140
2.5
145
2.0
174
     1
175
     6
176
     0
177
     0
290
     1
304
M16*2.0
 11
0.0
 21
0.0
 31
1.0
340
25
 12
241.6956978004414
 22
122.033076732259
 32
0.0
 13
1.0
 23
0.0
 33
0.0
 42
0.0
 43
0.0
 44
0.0
 45
1.0
170
     1
 90
-1023410174
171
     1
172
     5
 91
-1073741824
141
0.0
 92
        0
291
     0
292
     0
173
     0
293
     0
142
0.0
143
0.0
294
     0
295
     0
296
     0
110
271.8035791562701
120
105.251963543326
130
0.0
111
1.0
121
0.0
131
0.0
112
0.0
122
1.0
132
0.0
297
     0
302
LEADER{
290
     1
291
     1
 10
232.8611216829108
 20
120.533076732259
 30
0.0
 11
1.0
 21
0.0
 31
0.0
 90
        0
 40
6.834576117530545
304
LEADER_LINE{
 10
238.0555791562708
 20
103.9499632469111
 30
0.0
 91
        0
305
}
271
     0
303
}
272
     9
273
     9
301
}
340
BD9
 90
   280192
170
     1
 91
-1023410173
341
28
171
    -2
290
     1
291
     1
 41
0.36
 42
2.5
172
     2
343
25
173
     1
 95
        6
174
     1
175
     0
 92
-1023410174
292
     0
 93
-1056964608
 10
1.0
 20
1.0
 30
1.0
 43
0.0
176
     0
293
     0
294
     0
178
     0
179
     1
 45
1.0
271
     0
272
     9
273
     9
295
     1
  0
MULTILEADER
  5
39024
330
2
100
AcDbEntity
  8
0
  6
Continuous
 62
     7
160
               692
310
B4020000180000000C00000016000000020000C30C00000033000000000000000C00000013000000993A00000C00000016000000020000C3D800000026000000382A127BE7D2664045D51D9213D45140000000000000000000000000000000000000000000000000000000000000F03F000000000000F03F00000000000000
310
00000000000000000043002E00300032000000740004000000010000000000000000000840000000000000F03F0000000000000000000000000000F03F00000000000000000000000000000000000000000000000000000000010000000000000000000000690073006F00630070002E007300680078000000770068006700
310
7400780074002E00730068007800000000000C00000033000000000000000C00000010000000000000000C00000016000000030000C30C00000012000000000000000C00000013000000010000000C000000140000000100000054000000070000000300000074ADAD3F5CFD65408C3368ABC7025440000000000000000060
310
9E40A417DC6540A015656EB69654400000000000000000AD5BA0188D13664002CD01065B20544000000000000000000C0000001300000089130000540000000600000003000000910427AC740866404700B558911154400000000000000000F02563428CA76640A0959768183452400000000000000000F02DC0A9D4BC6640
310
A09597681834524000000000000000000C00000013000000112700003C0000000600000002000000F02DC0A9D4BC6640A0959768183452400000000000000000F02DC0A9D4CC6640A09597681834524000000000000000000C00000016000000030000C30C00000012000000000000000C00000017000000000000000C0000
310
00130000009A3A00000C00000016000000070000C30C00000012000000000000000C00000017000000FFFFFFFF0C0000003300000000000000
100
AcDbMLeader
270
     2
300
CONTEXT_DATA{
 40
1.0
 10
182.4009598496918
 20
72.81398978045626
 30
0.0
 41
3.0
140
2.5
145
0.5
174
     2
175
     2
176
     0
177
     1
290
     1
304
C.02
 11
0.0
 21
0.0
 31
1.0
340
25
 12
182.9009598496918
 22
74.31428505604663
 32
0.0
 13
1.0
 23
0.0
 33
0.0
 42
0.0
 43
0.0
 44
0.0
 45
1.0
170
     1
 90
-1023410174
171
     1
172
     5
 91
-1073741824
141
0.0
 92
     2047
291
     0
292
     0
173
     0
293
     0
142
0.0
143
0.0
294
     0
295
     0
296
     0
110
157.5678859388428
120
81.24191564728198
130
0.0
111
1.0
121
0.0
131
0.0
112
0.0
122
1.0
132
0.0
297
     0
302
LEADER{
290
     1
291
     1
 10
181.9009598496918
 20
72.81398978045626
 30
0.0
 11
1.0
 21
0.0
 31
0.0
 90
        0
 40
0.5
304
LEADER_LINE{
 10
174.877885938843
 20
82.35488471862344
 30
0.0
 10
181.2358714996803
 20
72.81398978045626
 30
0.0
 91
        0
305
}
271
     0
303
}
272
     9
273
     9
301
}
340
BD9
 90
   347136
170
     1
 91
-1023410173
341
28
171
    -1
290
     1
291
     1
 41
0.5
 42
2.5
172
     2
343
25
173
     2
 95
        2
174
     1
175
     0
 92
-1023410174
292
     0
 93
-1023410174
 10
1.0
 20
1.0
 30
1.0
 43
0.0
176
     1
293
     0
294
     0
178
     0
179
     1
 45
1.0
271
     0
272
     9
273
     9
295
     0
  0
DIMENSION
  5
39040
330
2
100
AcDbEntity
  8
0
  6
Continuous
 62
     7
100
AcDbDimension
280
     0
  2
*D5
 10
257.2076241148203
 20
70.73459583370777
 30
0.0
 11
242.9201241148204
 21
72.85989110929832
 31
0.0
 70
    32
  1
1.125
 71
     5
 42
28.57499999999993
 73
     0
 74
     0
 75
     0
  3
Standard$0
100
AcDbAlignedDimension
 13
228.6326241148204
 23
91.60460549538811
 33
0.0
 14
257.2076241148203
 24
91.60460549538811
 34
0.0
100
AcDbRotatedDimension
1001
ACAD
1000
DSTYLE
1002
{
1070
   171
1070
     3
1070
   143
1040
0.03937007874016
1070
   274
1070
     3
1070
   141
1040
-0.5
1070
    43
1040
3.75
1070
    44
1040
1.25
1070
    42
1040
0.625
1070
   147
1040
0.625
1070
   371
1070
    -1
1070
   372
1070
    -1
1070
   175
1070
     0
1070
    77
1070
     1
1070
   146
1040
0.7
1070
    48
1040
0.000000001
1070
   172
1070
     1
1070
    74
1070
     0
1070
   283
1070
     0
1070
   340
1005
25
1070
   140
1040
3.0
1070
   284
1070
     8
1070
    90
1070
     1
1002
}
  0
DIMENSION
  5
397DD
330
2
100
AcDbEntity
  8
0
  6
Continuous
 62
     7
100
AcDbDimension
280
     0
  2
*D6
 10
89.80483140537481
 20
112.4912103987972
 30
0.0
 11
89.80483140537478
 21
89.19285692659423
 31
0.0
 70
   160
  1
%%C1.40
 71
     5
 42
35.55999999999949
 73
     0
 74
     0
 75
     0
  3
Standard$0
100
AcDbAlignedDimension
 13
79.0278852662367
 23
79.81888441365345
 33
0.0
 14
79.0278852662367
 24
115.3788844136529
 34
0.0
 50
90.0
100
AcDbRotatedDimension
1001
ACAD
1000
DSTYLE
1002
{
1070
    42
1040
0.625
1070
    43
1040
3.75
1070
    44
1040
1.25
1070
    48
1040
0.000000001
1070
    74
1070
     0
1070
    76
1070
     1
1070
    77
1070
     1
1070
    90
1070
     1
1070
   140
1040
3.0
1070
   143
1040
0.03937007874016
1070
   146
1040
0.7
1070
   147
1040
0.625
1070
   171
1070
     3
1070
   172
1070
     1
1070
   175
1070
     0
1070
   274
1070
     3
1070
   282
1070
     1
1070
   283
1070
     0
1070
   284
1070
     8
1070
   340
1005
25
1070
   371
1070
    -1
1070
   372
1070
    -1
1002
}
  0
MULTILEADER
  5
397DE
330
2
100
AcDbEntity
  8
0
  6
Continuous
 62
     7
160
               680
310
A8020000180000000C00000016000000020000C30C00000033000000000000000C00000013000000993A00000C00000016000000020000C3CC00000026000000109F8595F1F455400014BA00A5F85040000000000000000000000000000000000000000000000000000000000000F03F000000000000F03F00000000000000
310
0000000000000000002E0030003200780034003500B000000007000000010000000000000000000440000000000000F03F0000000000000000000000000000F03F0000000000000000000000000000000000000000000000000000000001000000000000000000000072006F006D0061006E0073002E007300680078000000
310
3300000030000C00000033000000000000000C00000010000000000000000C00000016000000030000C30C00000012000000000000000C00000013000000010000000C0000001400000001000000540000000700000003000000C636DF9BB6115440484E73F38E4F53400000000000000000D8959DAD07D253404064B4C7BD
310
E45340000000000000000018E98F95A73E5440504CD1C1466C534000000000000000000C0000001300000089130000540000000600000003000000EF8FB7182F2854404C4DA2DAEA5D53400000000000000000F8C34882F37C55402014BA00A54851400000000000000000F818247D6BD355400014BA00A548514000000000
310
000000000C00000013000000112700003C0000000600000002000000F818247D6BD355400014BA00A54851400000000000000000F818247D6BF355400014BA00A548514000000000000000000C00000016000000030000C30C00000012000000000000000C00000017000000000000000C000000130000009A3A00000C0000
310
0016000000070000C30C00000012000000000000000C00000017000000FFFFFFFF0C0000003300000000000000
100
AcDbMLeader
270
     2
300
CONTEXT_DATA{
 40
1.0
 10
87.80343559765958
 20
69.13507097408
 30
0.0
 41
2.5
140
2.5
145
0.5
174
     2
175
     2
176
     0
177
     1
290
     1
304
.02x45%%D
 11
0.0
 21
0.0
 31
1.0
340
35
 12
88.30343559765958
 22
70.38507097408
 32
0.0
 13
1.0
 23
0.0
 33
0.0
 42
0.0
 43
19.16666666666667
 44
0.0
 45
1.0
170
     1
 90
-1023410174
171
     1
172
     5
 91
-939524096
141
1.5
 92
        0
291
     0
292
     0
173
     0
293
     0
142
0.0
143
0.0
294
     0
295
     0
296
     0
110
84.03535102458125
120
81.33893983662346
130
0.0
111
1.0
121
0.0
131
0.0
112
0.0
122
1.0
132
0.0
297
     0
302
LEADER{
290
     1
291
     1
 10
87.30343559765959
 20
69.13507097408
 30
0.0
 11
1.0
 21
0.0
 31
0.0
 90
        0
 40
0.5
304
LEADER_LINE{
 10
79.28171863927071
 20
79.57408325783126
 30
0.0
 10
85.95236260515219
 20
69.13507097408047
 30
0.0
 91
        0
305
}
271
     0
303
}
272
     9
273
     9
301
}
340
BD9
 90
   314368
170
     1
 91
-1023410173
341
28
171
    -1
290
     1
291
     1
 41
0.5
 42
2.5
172
     2
343
35
173
     2
 95
        2
174
     1
175
     0
 92
-1023410174
292
     0
 93
-1023410174
 10
1.0
 20
1.0
 30
1.0
 43
0.0
176
     1
293
     0
294
     0
178
     0
179
     1
 45
1.0
271
     0
272
     9
273
     9
295
     0
  0
HATCH
  5
39AC2
330
2
100
AcDbEntity
  8
0
  6
Continuous
 62
     4
100
AcDbHatch
 10
0.0
 20
0.0
 30
0.0
210
0.0
220
0.0
230
1.0
  2
ANSI31
 70
     0
 71
     0
 91
       17
 92
        7
 72
     1
 73
     1
 93
       41
 10
26.52788526638494
 20
109.0988844136532
 42
0.0
 10
26.52788526638494
 20
104.3875595481727
 42
0.0
 10
27.02788526623442
 20
104.0988844136659
 42
0.0
 10
30.52788526623442
 20
104.0988844136641
 42
0.0
 10
32.02788526623306
 20
102.5988844136641
 42
0.0
 10
50.52788526623442
 20
102.5988844136641
 42
0.0
 10
51.74032083159409
 20
101.8988844136279
 42
0.0
 10
61.52788526638494
 20
101.8988844136124
 42
0.0
 10
61.70109034711822
 20
101.5988844136532
 42
0.0
 10
133.2803644049781
 20
101.5988844136532
 42
0.0
 10
135.1278852663849
 20
104.798884413653
 42
0.0
 10
145.7422446203318
 20
104.798884413653
 42
0.0
 10
147.1278852663849
 20
105.5988844136523
 42
0.0
 10
164.7678852663855
 20
105.5988844136541
 42
0.0
 10
164.9678852663851
 20
105.7988844136539
 42
0.0
 10
164.9678852663851
 20
106.2258844136536
 42
0.0
 10
166.9479148138234
 20
106.2258844136536
 42
0.0
 10
167.1678852663849
 20
106.0988844136532
 42
0.0
 10
174.1278852663849
 20
106.0988844136532
 42
0.0
 10
174.6278852663849
 20
106.3875595482482
 42
0.0
 10
175.1278852663849
 20
106.8875595482482
 42
0.0
 10
175.1278852663849
 20
112.5928844136529
 42
0.0
 10
174.6278852663849
 20
113.0928844136529
 42
0.0
 10
142.1078852663862
 20
113.0928844136542
 42
0.0
 10
79.53555201230506
 20
115.3604867252975
 42
0.0
 10
79.0278852662367
 20
115.8868844136527
 42
0.0
 10
79.02788526623488
 20
116.848884413635
 42
0.4142135623730951
 10
78.52788526623488
 20
117.348884413635
 42
0.0
 10
74.02788526638494
 20
117.3488844136532
 42
0.4142135623730951
 10
73.52788526638494
 20
116.8488844136532
 42
0.0
 10
73.52788526638494
 20
114.6184996559236
 42
0.0
 10
73.82788526638512
 20
114.0988844136532
 42
0.0
 10
73.82788526638512
 20
112.3488844136532
 42
0.0
 10
73.52788526638494
 20
112.3488844136532
 42
0.0
 10
71.98530716998982
 20
112.3488844136532
 42
0.0
 10
71.52788526638403
 20
112.806306317259
 42
0.0
 10
40.99032414063538
 20
109.8658736221855
 42
0.0
 10
40.52788526638403
 20
109.5988844136532
 42
0.0
 10
38.02788526638494
 20
109.5988844136532
 42
0.0
 10
36.6541465566578
 20
110.0988844136532
 42
0.0
 10
27.52788526638494
 20
110.0988844136532
 42
0.4142135623730951
 97
        0
 92
        7
 72
     0
 73
     1
 93
        4
 10
50.52788526623442
 20
101.8988844136297
 10
50.52788526623442
 20
102.5988844136641
 10
32.02788526623226
 20
102.5988844136641
 10
32.72788526623879
 20
101.8988844136579
 97
        0
 92
        7
 72
     0
 73
     1
 93
        3
 10
51.74032083154213
 20
101.8988844136579
 10
50.52788526623442
 20
102.5988844136641
 10
50.52788526623442
 20
101.8988844136297
 97
        0
 92
        7
 72
     0
 73
     1
 93
        4
 10
147.1278852663849
 20
105.5988844136523
 10
147.1278852663849
 20
104.798884413653
 10
163.9678852663851
 20
104.798884413653
 10
164.7678852663844
 20
105.5988844136541
 97
        0
 92
        7
 72
     0
 73
     1
 93
        3
 10
147.1278852663849
 20
105.5988844136523
 10
145.7422446203318
 20
104.798884413653
 10
147.1278852663849
 20
104.798884413653
 97
        0
 92
        9
 93
        4
 72
     1
 10
191.4672547910547
 20
84.2429589045264
 11
191.4672547910547
 21
104.3166899646494
 72
     1
 10
191.4672547910547
 20
104.3166899646494
 11
197.6589083343618
 21
104.3166899646494
 72
     1
 10
197.6589083343618
 20
104.3166899646494
 11
197.6589083343618
 21
84.2429589045264
 72
     1
 10
197.6589083343618
 20
84.2429589045264
 11
191.4672547910547
 21
84.2429589045264
 97
        0
 92
        9
 93
        4
 72
     1
 10
177.2712005085261
 20
133.7446561823694
 11
192.882031614107
 21
133.7446561823694
 72
     1
 10
192.882031614107
 20
133.7446561823694
 11
192.882031614107
 21
129.2446561823694
 72
     1
 10
192.882031614107
 20
129.2446561823694
 11
177.2712005085261
 21
129.2446561823694
 72
     1
 10
177.2712005085261
 20
129.2446561823694
 11
177.2712005085261
 21
133.7446561823694
 97
        0
 92
        9
 93
        4
 72
     1
 10
168.097885266385
 20
141.7446561823694
 11
171.9978852663849
 21
141.7446561823694
 72
     1
 10
171.9978852663849
 20
141.7446561823694
 11
171.9978852663849
 21
137.2446561823694
 72
     1
 10
171.9978852663849
 20
137.2446561823694
 11
168.097885266385
 21
137.2446561823694
 72
     1
 10
168.097885266385
 20
137.2446561823694
 11
168.097885266385
 21
141.7446561823694
 97
        0
 92
        9
 93
        4
 72
     1
 10
155.9735197363235
 20
149.7446561823694
 11
166.2822507964464
 21
149.7446561823694
 72
     1
 10
166.2822507964464
 20
149.7446561823694
 11
166.2822507964464
 21
145.2446561823694
 72
     1
 10
166.2822507964464
 20
145.2446561823694
 11
155.9735197363235
 21
145.2446561823694
 72
     1
 10
155.9735197363235
 20
145.2446561823694
 11
155.9735197363235
 21
149.7446561823694
 97
        0
 92
        9
 93
        4
 72
     1
 10
201.1583177831899
 20
92.55879583097522
 11
201.1583177831899
 21
102.6389729963293
 72
     1
 10
201.1583177831899
 20
102.6389729963293
 11
205.6589083343709
 21
102.6389729963293
 72
     1
 10
205.6589083343709
 20
102.6389729963293
 11
205.6589083343709
 21
92.55879583097522
 72
     1
 10
205.6589083343709
 20
92.55879583097522
 11
201.1583177831899
 21
92.55879583097522
 97
        0
 92
        9
 93
        4
 72
     1
 10
115.3170159716957
 20
89.04650409148326
 11
115.3170159716957
 21
99.9552351516063
 72
     1
 10
115.3170159716957
 20
99.9552351516063
 11
119.8170159716957
 21
99.9552351516063
 72
     1
 10
119.8170159716957
 20
99.9552351516063
 11
119.8170159716957
 21
89.04650409148326
 72
     1
 10
119.8170159716957
 20
89.04650409148326
 11
115.3170159716957
 21
89.04650409148326
 97
        0
 92
        9
 93
        4
 72
     1
 10
58.09631888208776
 20
85.72358913806283
 11
58.09631888208776
 21
97.12358913806292
 72
     1
 10
58.09631888208776
 20
97.12358913806292
 11
62.59631888208776
 21
97.12358913806292
 72
     1
 10
62.59631888208776
 20
97.12358913806292
 11
62.59631888208776
 21
85.72358913806283
 72
     1
 10
62.59631888208776
 20
85.72358913806283
 11
58.09631888208776
 21
85.72358913806283
 97
        0
 92
        9
 93
        4
 72
     1
 10
27.02788526630968
 20
123.8610822113073
 11
30.02788526630968
 21
123.8610822113073
 72
     1
 10
30.02788526630968
 20
123.8610822113073
 11
30.02788526630968
 21
119.3610822113073
 72
     1
 10
30.02788526630968
 20
119.3610822113073
 11
27.02788526630968
 21
119.3610822113073
 72
     1
 10
27.02788526630968
 20
119.3610822113073
 11
27.02788526630968
 21
123.8610822113073
 97
        0
 92
        9
 93
        4
 72
     1
 10
85.42983140537478
 20
84.09167582423197
 11
85.42983140537478
 21
94.29403802895649
 72
     1
 10
85.42983140537478
 20
94.29403802895649
 11
89.92983140537479
 21
94.29403802895649
 72
     1
 10
89.92983140537479
 20
94.29403802895649
 11
89.92983140537479
 21
84.09167582423197
 72
     1
 10
89.92983140537479
 20
84.09167582423197
 11
85.42983140537478
 21
84.09167582423197
 97
        0
 92
        9
 93
        4
 72
     1
 10
11.02823197584928
 20
94.08675237929491
 11
11.02823197584928
 21
101.1110164480069
 72
     1
 10
11.02823197584928
 20
101.1110164480069
 11
15.52823197584928
 21
101.1110164480069
 72
     1
 10
15.52823197584928
 20
101.1110164480069
 11
15.52823197584928
 21
94.08675237929491
 72
     1
 10
15.52823197584928
 20
94.08675237929491
 11
11.02823197584928
 21
94.08675237929491
 97
        0
 92
        9
 93
        4
 72
     1
 10
155.9735197363235
 20
149.7446561823694
 11
166.2822507964464
 21
149.7446561823694
 72
     1
 10
166.2822507964464
 20
149.7446561823694
 11
166.2822507964464
 21
145.2446561823694
 72
     1
 10
166.2822507964464
 20
145.2446561823694
 11
155.9735197363235
 21
145.2446561823694
 72
     1
 10
155.9735197363235
 20
145.2446561823694
 11
155.9735197363235
 21
149.7446561823694
 97
        0
 92
        9
 93
        4
 72
     1
 10
155.9735197363235
 20
149.7446561823694
 11
166.2822507964464
 21
149.7446561823694
 72
     1
 10
166.2822507964464
 20
149.7446561823694
 11
166.2822507964464
 21
145.2446561823694
 72
     1
 10
166.2822507964464
 20
145.2446561823694
 11
155.9735197363235
 21
145.2446561823694
 72
     1
 10
155.9735197363235
 20
145.2446561823694
 11
155.9735197363235
 21
149.7446561823694
 97
        0
 75
     1
 76
     1
 52
0.0
 41
1.0
 77
     0
 78
     1
 53
45.0
 43
-672.4443755365199
 44
2491.335728692976
 45
-2.245064030267288
 46
2.245064030267288
 79
     0
 47
0.0
 98
        5
 10
82.50900033723121
 20
108.4764135439063
 10
47.25138965861697
 20
102.4361088181062
 10
50.79394608772474
 20
102.0193374735054
 10
151.415956803927
 20
105.2331684814971
 10
146.7957487552084
 20
105.042644438251
1001
ACAD
1010
0.0
1020
0.0
1030
0.0
1001
HATCHBACKGROUNDCOLOR
1071
-939524096
1000
없음
1000

  0
LINE
  5
39AC5
330
2
100
AcDbEntity
  8
30-D10-105
  6
CENTER2
 62
     3
100
AcDbLine
 10
23.52788526638494
 20
97.59888441365319
 30
0.0
 11
177.1278852663849
 21
97.59888441365319
 31
0.0
  0
ARC
  5
39AC6
330
2
100
AcDbEntity
  8
36-D16-105
  6
Continuous
 62
     7
100
AcDbCircle
 10
74.02788526638494
 20
116.8488844136532
 30
0.0
 40
0.5
100
AcDbArc
 50
90.0
 51
180.0
  0
ARC
  5
39AC7
330
2
100
AcDbEntity
  8
06-D06-75
  6
Continuous
 62
     7
100
AcDbCircle
 10
27.52788526638494
 20
109.0988844136532
 30
0.0
 40
1.0
100
AcDbArc
 50
90.0
 51
180.0
  0
LINE
  5
39AC8
330
2
100
AcDbEntity
  8
06-D06-75
  6
Continuous
 62
     7
100
AcDbLine
 10
26.52788526638494
 20
97.59888441365319
 30
0.0
 11
26.52788526638494
 21
109.0988844136532
 31
0.0
  0
LINE
  5
39AC9
330
2
100
AcDbEntity
  8
06-D06-75
  6
Continuous
 62
     7
100
AcDbLine
 10
61.52788526638494
 20
97.59888441365319
 30
0.0
 11
61.52788526638494
 21
101.8988844136124
 31
0.0
  0
LINE
  5
39ACA
330
2
100
AcDbEntity
  8
32-D12-105
  6
Continuous
 62
     7
100
AcDbLine
 10
27.52788526638494
 20
110.0988844136532
 30
0.0
 11
36.6541465566578
 21
110.0988844136532
 31
0.0
  0
LINE
  5
39ACB
330
2
100
AcDbEntity
  8
32-D12-105
  6
Continuous
 62
     7
100
AcDbLine
 10
38.02788526638494
 20
109.5988844136532
 30
0.0
 11
40.52788526638403
 21
109.5988844136532
 31
0.0
  0
LINE
  5
39ACC
330
2
100
AcDbEntity
  8
32-D12-105
  6
Continuous
 62
     7
100
AcDbLine
 10
36.65414655665689
 20
110.0988844136532
 30
0.0
 11
38.02788526638494
 21
109.5988844136532
 31
0.0
  0
LINE
  5
39ACD
330
2
100
AcDbEntity
  8
32-D12-105
  6
Continuous
 62
     7
100
AcDbLine
 10
40.99032414063538
 20
109.8658736221855
 30
0.0
 11
40.52788526638494
 21
109.5988844136532
 31
0.0
  0
LINE
  5
39ACE
330
2
100
AcDbEntity
  8
36-D16-105
  6
Continuous
 62
     7
100
AcDbLine
 10
73.52788526638494
 20
112.3488844136532
 30
0.0
 11
73.52788526638494
 21
116.8488844136532
 31
0.0
  0
LINE
  5
39ACF
330
2
100
AcDbEntity
  8
28-D08-105
  6
Continuous
 62
     7
100
AcDbLine
 10
71.98530716998982
 20
112.3488844136532
 30
0.0
 11
71.52788526638494
 21
112.806306317259
 31
0.0
  0
LINE
  5
39AD0
330
2
100
AcDbEntity
  8
30-D10-105
  6
Continuous
 62
     7
100
AcDbLine
 10
71.98530716998982
 20
112.3488844136532
 30
0.0
 11
73.82788526638512
 21
112.3488844136532
 31
0.0
  0
LINE
  5
39AD1
330
2
100
AcDbEntity
  8
30-D10-105
  6
Continuous
 62
     7
100
AcDbLine
 10
73.82788526638512
 20
112.3488844136532
 30
0.0
 11
73.82788526638512
 21
114.0988844136532
 31
0.0
  0
LINE
  5
39AD2
330
2
100
AcDbEntity
  8
30-D10-105
  6
Continuous
 62
     7
100
AcDbLine
 10
73.52788526638494
 20
114.6184996559236
 30
0.0
 11
73.82788526638512
 21
114.0988844136532
 31
0.0
  0
LINE
  5
39AD3
330
2
100
AcDbEntity
  8
06-D06-75
  6
Continuous
 62
     7
100
AcDbLine
 10
40.99032414063538
 20
109.8658736221855
 30
0.0
 11
71.52788526638403
 21
112.806306317259
 31
0.0
  0
ARC
  5
39AD4
330
2
100
AcDbEntity
  8
36-D16-105
  6
Continuous
 62
     7
100
AcDbCircle
 10
74.02788526638494
 20
78.34888441365319
 30
0.0
 40
0.5
100
AcDbArc
 50
180.0
 51
270.0
  0
ARC
  5
39AD5
330
2
100
AcDbEntity
  8
06-D06-75
  6
Continuous
 62
     7
100
AcDbCircle
 10
27.52788526638494
 20
86.09888441365319
 30
0.0
 40
1.0
100
AcDbArc
 50
180.0
 51
270.0
  0
LINE
  5
39AD6
330
2
100
AcDbEntity
  8
06-D06-75
  6
Continuous
 62
     7
100
AcDbLine
 10
26.52788526638494
 20
97.59888441365319
 30
0.0
 11
26.52788526638494
 21
86.09888441365319
 31
0.0
  0
LINE
  5
39AD7
330
2
100
AcDbEntity
  8
32-D12-105
  6
Continuous
 62
     7
100
AcDbLine
 10
27.52788526638494
 20
85.09888441365319
 30
0.0
 11
36.6541465566578
 21
85.09888441365319
 31
0.0
  0
LINE
  5
39AD8
330
2
100
AcDbEntity
  8
32-D12-105
  6
Continuous
 62
     7
100
AcDbLine
 10
38.02788526638494
 20
85.5988844136532
 30
0.0
 11
40.52788526638403
 21
85.5988844136532
 31
0.0
  0
LINE
  5
39AD9
330
2
100
AcDbEntity
  8
32-D12-105
  6
Continuous
 62
     7
100
AcDbLine
 10
36.65414655665689
 20
85.09888441365319
 30
0.0
 11
38.02788526638494
 21
85.5988844136532
 31
0.0
  0
LINE
  5
39ADA
330
2
100
AcDbEntity
  8
32-D12-105
  6
Continuous
 62
     7
100
AcDbLine
 10
40.99032414063538
 20
85.33189520512086
 30
0.0
 11
40.52788526638494
 21
85.5988844136532
 31
0.0
  0
LINE
  5
39ADB
330
2
100
AcDbEntity
  8
28-D08-105
  6
Continuous
 62
     7
100
AcDbLine
 10
71.98530716998982
 20
82.84888441365319
 30
0.0
 11
71.52788526638494
 21
82.39146251004923
 31
0.0
  0
LINE
  5
39ADC
330
2
100
AcDbEntity
  8
30-D10-105
  6
Continuous
 62
     7
100
AcDbLine
 10
71.98530716998982
 20
82.84888441365319
 30
0.0
 11
73.52788526638494
 21
82.84888441365319
 31
0.0
  0
LINE
  5
39ADD
330
2
100
AcDbEntity
  8
06-D06-75
  6
Continuous
 62
     7
100
AcDbLine
 10
40.99032414063538
 20
85.33189520512086
 30
0.0
 11
71.52788526638403
 21
82.39146251004923
 31
0.0
  0
LINE
  5
39ADE
330
2
100
AcDbEntity
  8
36-D16-105
  6
Continuous
 62
     7
100
AcDbLine
 10
73.52788526638494
 20
97.59888441365319
 30
0.0
 11
73.52788526638494
 21
78.34888441365319
 31
0.0
  0
LINE
  5
39ADF
330
2
100
AcDbEntity
  8
0
  6
Continuous
 62
     7
100
AcDbLine
 10
71.52788526638494
 20
82.3914625100474
 30
0.0
 11
71.52788526638494
 21
97.59888441365319
 31
0.0
  0
LINE
  5
39AE0
330
2
100
AcDbEntity
  8
0
  6
Continuous
 62
     7
100
AcDbLine
 10
71.98530716998892
 20
82.84888441365319
 30
0.0
 11
71.98530716998892
 21
97.59888441365319
 31
0.0
  0
LINE
  5
39AE1
330
2
100
AcDbEntity
  8
0
  6
Continuous
 62
     7
100
AcDbLine
 10
36.65414655665689
 20
85.09888441365319
 30
0.0
 11
36.65414655665689
 21
97.59888441365319
 31
0.0
  0
LINE
  5
39AE2
330
2
100
AcDbEntity
  8
0
  6
Continuous
 62
     7
100
AcDbLine
 10
38.02788526638494
 20
85.5988844136532
 30
0.0
 11
38.02788526638494
 21
97.59888441365319
 31
0.0
  0
LINE
  5
39AE3
330
2
100
AcDbEntity
  8
0
  6
Continuous
 62
     7
100
AcDbLine
 10
40.52788526638494
 20
85.5988844136532
 30
0.0
 11
40.52788526638494
 21
97.59888441365319
 31
0.0
  0
LINE
  5
39AE4
330
2
100
AcDbEntity
  8
0
  6
Continuous
 62
     7
100
AcDbLine
 10
40.99032414063538
 20
85.33189520512086
 30
0.0
 11
40.99032414063538
 21
97.59888441365319
 31
0.0
  0
LINE
  5
39AE6
330
2
100
AcDbEntity
  8
36-D16-105
  6
Continuous
 62
     7
100
AcDbLine
 10
74.02788526623396
 20
77.84888441366411
 30
0.0
 11
78.52788526623488
 21
77.84888441366411
 31
0.0
  0
LINE
  5
39AE7
330
2
100
AcDbEntity
  8
0
  6
Continuous
 62
     7
100
AcDbLine
 10
79.02788526623453
 20
78.34888441366638
 30
0.0
 11
79.02788526627091
 21
97.59888441365319
 31
0.0
  0
ARC
  5
39AE8
330
2
100
AcDbEntity
  8
0
  6
Continuous
 62
     7
100
AcDbCircle
 10
78.52788526623488
 20
78.34888441366411
 30
0.0
 40
0.5000000000000004
100
AcDbArc
 50
270.0
 51
0.0
  0
LINE
  5
39AE9
330
2
100
AcDbEntity
  8
36-D16-105
  6
Continuous
 62
     7
100
AcDbLine
 10
74.02788526623396
 20
117.348884413635
 30
0.0
 11
78.52788526623488
 21
117.348884413635
 31
0.0
  0
ARC
  5
39AEA
330
2
100
AcDbEntity
  8
0
  6
Continuous
 62
     7
100
AcDbCircle
 10
78.52788526623488
 20
116.848884413635
 30
0.0
 40
0.5000000000000004
100
AcDbArc
 50
0.0
 51
90.0
  0
LINE
  5
39AEB
330
2
100
AcDbEntity
  8
0
  6
Continuous
 62
     7
100
AcDbLine
 10
61.52788526638494
 20
101.8988844136124
 30
0.0
 11
32.72788526623879
 21
101.8988844136579
 31
0.0
  0
LINE
  5
39AEC
330
2
100
AcDbEntity
  8
0
  6
Continuous
 62
     7
100
AcDbLine
 10
79.0278852662368
 20
116.8488844136345
 30
0.0
 11
79.0278852662367
 21
115.8868844136527
 31
0.0
  0
LINE
  5
39AEF
330
2
100
AcDbEntity
  8
36-D16-105
  6
Continuous
 62
     7
100
AcDbLine
 10
30.52788526623487
 20
104.0988844136623
 30
0.0
 11
27.02788526623442
 21
104.0988844136659
 31
0.0
  0
LINE
  5
39AF0
330
2
100
AcDbEntity
  8
26-D06-105
  6
Continuous
 62
     7
100
AcDbLine
 10
27.02788526623442
 20
104.0988844136641
 30
0.0
 11
26.52788526638494
 21
104.3875595481727
 31
0.0
  0
LINE
  5
39AF1
330
2
100
AcDbEntity
  8
0
  6
Continuous
 62
     7
100
AcDbLine
 10
32.72788526623742
 20
101.8988844136579
 30
0.0
 11
32.72788526623742
 21
97.59888441366411
 31
0.0
  0
LINE
  5
39AF2
330
2
100
AcDbEntity
  8
0
  6
Continuous
 62
     7
100
AcDbLine
 10
30.52788526623442
 20
104.0988844136641
 30
0.0
 11
30.52788526623442
 21
97.59888441365138
 31
0.0
  0
LINE
  5
39AF3
330
2
100
AcDbEntity
  8
0
  6
Continuous
 62
     7
100
AcDbLine
 10
30.52788526623442
 20
104.0988844136641
 30
0.0
 11
32.72788526623742
 21
101.8988844136579
 31
0.0
  0
LINE
  5
39AF4
330
2
100
AcDbEntity
  8
36-D16-105
  6
Continuous
 62
     3
100
AcDbLine
 10
32.02788526623306
 20
102.5988844136641
 30
0.0
 11
50.52788526623442
 21
102.5988844136641
 31
0.0
  0
LINE
  5
39AF5
330
2
100
AcDbEntity
  8
0
  6
Continuous
 62
     2
100
AcDbLine
 10
50.52788526623442
 20
102.5988844136641
 30
0.0
 11
50.52788526623442
 21
97.59888441366411
 31
0.0
  0
LINE
  5
39AF6
330
2
100
AcDbEntity
  8
0
  6
Continuous
 62
     7
100
AcDbLine
 10
27.02788526623442
 20
104.0988844136641
 30
0.0
 11
27.02788526623442
 21
97.59888441365502
 31
0.0
  0
LINE
  5
39AF7
330
2
100
AcDbEntity
  8
0
  6
Continuous
 62
     3
100
AcDbLine
 10
50.52788526623442
 20
102.5988844136641
 30
0.0
 11
51.74032083154213
 21
101.8988844136579
 31
0.0
  0
LINE
  5
39AF9
330
2
100
AcDbEntity
  8
0
  6
Continuous
100
AcDbLine
 10
61.52788526638494
 20
101.8988844136124
 30
0.0
 11
61.70109034711856
 21
101.5988844136532
 31
0.0
  0
LINE
  5
39AFA
330
2
100
AcDbEntity
  8
0
  6
Continuous
100
AcDbLine
 10
61.70109034711856
 20
101.5988844136532
 30
0.0
 11
61.70109034711856
 21
97.59888441365319
 31
0.0
  0
LINE
  5
39AFB
330
2
100
AcDbEntity
  8
0
  6
Continuous
 62
     7
100
AcDbLine
 10
61.70109034711822
 20
101.5988844136532
 30
0.0
 11
133.2803644049781
 21
101.5988844136532
 31
0.0
  0
LINE
  5
39B03
330
2
100
AcDbEntity
  8
0
  6
Continuous
100
AcDbLine
 10
175.1278852663858
 20
82.60488441365259
 30
0.0
 11
175.1278852663849
 21
97.59888441365319
 31
0.0
  0
LINE
  5
39B04
330
2
100
AcDbEntity
  8
0
  6
Continuous
100
AcDbLine
 10
142.1078852663859
 20
82.1048844136526
 30
0.0
 11
142.107885266385
 21
97.59888441364864
 31
0.0
  0
LINE
  5
39B05
330
2
100
AcDbEntity
  8
0
  6
Continuous
 62
     7
100
AcDbLine
 10
174.6278852663859
 20
82.1048844136526
 30
0.0
 11
142.1078852663859
 21
82.1048844136526
 31
0.0
  0
LINE
  5
39B06
330
2
100
AcDbEntity
  8
0
  6
Continuous
 62
     7
100
AcDbLine
 10
175.1278852663858
 20
82.60488441365259
 30
0.0
 11
174.6278852663859
 21
82.1048844136526
 31
0.0
  0
LINE
  5
39B07
330
2
100
AcDbEntity
  8
0
  6
Continuous
100
AcDbLine
 10
175.1278852663849
 20
112.5928844136529
 30
0.0
 11
175.1278852663849
 21
97.59888441365228
 31
0.0
  0
LINE
  5
39B08
330
2
100
AcDbEntity
  8
0
  6
Continuous
 62
     2
100
AcDbLine
 10
147.1278852663849
 20
105.5988844136523
 30
0.0
 11
147.1278852663849
 21
97.59888441365228
 31
0.0
  0
LINE
  5
39B09
330
2
100
AcDbEntity
  8
0
  6
Continuous
100
AcDbLine
 10
135.1278852663849
 20
104.798884413653
 30
0.0
 11
135.1278852663849
 21
97.59888441365228
 31
0.0
  0
LINE
  5
39B0A
330
2
100
AcDbEntity
  8
0
  6
Continuous
100
AcDbLine
 10
174.6278852663849
 20
106.3875595482482
 30
0.0
 11
174.6278852663849
 21
97.59888441365228
 31
0.0
  0
LINE
  5
39B0B
330
2
100
AcDbEntity
  8
0
  6
Continuous
 62
     7
100
AcDbLine
 10
174.6278852663849
 20
113.0928844136529
 30
0.0
 11
175.1278852663849
 21
112.5928844136529
 31
0.0
  0
LINE
  5
39B0C
330
2
100
AcDbEntity
  8
0
  6
Continuous
100
AcDbLine
 10
174.1278852663849
 20
106.0988844136532
 30
0.0
 11
174.1278852663849
 21
97.59888441365228
 31
0.0
  0
LINE
  5
39B0D
330
2
100
AcDbEntity
  8
0
  6
Continuous
 62
     7
100
AcDbLine
 10
174.6278852663849
 20
113.0928844136529
 30
0.0
 11
142.1078852664
 21
113.0928844136529
 31
0.0
  0
LINE
  5
39B0E
330
2
100
AcDbEntity
  8
0
  6
Continuous
 62
     7
100
AcDbLine
 10
174.1278852663849
 20
106.0988844136532
 30
0.0
 11
167.1678852663849
 21
106.0988844136532
 31
0.0
  0
LINE
  5
39B0F
330
2
100
AcDbEntity
  8
0
  6
Continuous
 62
     7
100
AcDbLine
 10
164.9678852663851
 20
106.2258844136536
 30
0.0
 11
164.9678852663851
 21
97.59888441365319
 31
0.0
  0
LINE
  5
39B10
330
2
100
AcDbEntity
  8
0
  6
Continuous
 62
     7
100
AcDbLine
 10
163.9678852663842
 20
104.798884413653
 30
0.0
 11
135.1278852663849
 21
104.798884413653
 31
0.0
  0
LINE
  5
39B11
330
2
100
AcDbEntity
  8
0
  6
Continuous
 62
     3
100
AcDbLine
 10
164.7678852663844
 20
105.5988844136541
 30
0.0
 11
147.1278852663849
 21
105.5988844136523
 31
0.0
  0
LINE
  5
39B12
330
2
100
AcDbEntity
  8
0
  6
Continuous
 62
     7
100
AcDbLine
 10
164.9678852663851
 20
105.7988844136539
 30
0.0
 11
163.9678852663851
 21
104.798884413653
 31
0.0
  0
LINE
  5
39B13
330
2
100
AcDbEntity
  8
0
  6
Continuous
 62
     7
100
AcDbLine
 10
163.9678852663851
 20
104.798884413653
 30
0.0
 11
163.9678852663851
 21
97.59888441365319
 31
0.0
  0
LINE
  5
39B14
330
2
100
AcDbEntity
  8
0
  6
Continuous
 62
     7
100
AcDbLine
 10
174.1278852663849
 20
106.0988844136532
 30
0.0
 11
174.6278852663849
 21
106.3875595482482
 31
0.0
  0
LINE
  5
39B15
330
2
100
AcDbEntity
  8
0
  6
Continuous
 62
     7
100
AcDbLine
 10
174.6278852663859
 20
82.1048844136526
 30
0.0
 11
174.6278852663859
 21
97.59888441365319
 31
0.0
  0
LINE
  5
39B16
330
2
100
AcDbEntity
  8
0
  6
Continuous
 62
     7
100
AcDbLine
 10
174.6278852663849
 20
106.3875595482482
 30
0.0
 11
175.1278852663849
 21
106.8875595482482
 31
0.0
  0
LINE
  5
39B17
330
2
100
AcDbEntity
  8
0
  6
Continuous
 62
     7
100
AcDbLine
 10
166.9479148138234
 20
106.2258844136536
 30
0.0
 11
164.9678852663851
 21
106.2258844136536
 31
0.0
  0
LINE
  5
39B18
330
2
100
AcDbEntity
  8
0
  6
Continuous
 62
     7
100
AcDbLine
 10
167.1678852663849
 20
106.0988844136532
 30
0.0
 11
166.9479148138234
 21
106.2258844136536
 31
0.0
  0
LINE
  5
39B19
330
2
100
AcDbEntity
  8
0
  6
Continuous
 62
     7
100
AcDbLine
 10
166.9479148138234
 20
106.2258844136536
 30
0.0
 11
166.9479148138234
 21
97.59888441365319
 31
0.0
  0
LINE
  5
39B1A
330
2
100
AcDbEntity
  8
0
  6
Continuous
 62
     7
100
AcDbLine
 10
167.1678852663849
 20
106.0988844136532
 30
0.0
 11
167.1678852663849
 21
97.59888441365319
 31
0.0
  0
LINE
  5
39B1B
330
2
100
AcDbEntity
  8
0
  6
Continuous
 62
     3
100
AcDbLine
 10
147.1278852663849
 20
105.5988844136523
 30
0.0
 11
145.7422446203318
 21
104.798884413653
 31
0.0
  0
LINE
  5
39B1C
330
2
100
AcDbEntity
  8
0
  6
Continuous
 62
     7
100
AcDbLine
 10
135.1278852663849
 20
104.798884413653
 30
0.0
 11
133.2803644049781
 21
101.5988844136532
 31
0.0
  0
LINE
  5
39B1D
330
2
100
AcDbEntity
  8
0
  6
Continuous
 62
     7
100
AcDbLine
 10
133.2803644049781
 20
101.5988844136532
 30
0.0
 11
133.2803644049781
 21
97.59888441365319
 31
0.0
  0
LINE
  5
39B20
330
2
100
AcDbEntity
  8
0
  6
Continuous
100
AcDbLine
 10
142.107885266386
 20
82.10488441365214
 30
0.0
 11
79.53555201230518
 21
79.83728210200934
 31
0.0
  0
LINE
  5
39B26
330
2
100
AcDbEntity
  8
0
  6
Continuous
 62
     7
100
AcDbLine
 10
79.02788526623623
 20
79.31088441365318
 30
0.0
 11
79.53555201230506
 21
79.83728210200888
 31
0.0
  0
LINE
  5
39B27
330
2
100
AcDbEntity
  8
0
  6
Continuous
 62
     7
100
AcDbLine
 10
79.53555201230563
 20
79.83728210200934
 30
0.0
 11
79.53555201230563
 21
97.59888441365319
 31
0.0
  0
LINE
  5
39B28
330
2
100
AcDbEntity
  8
0
  6
Continuous
100
AcDbLine
 10
142.1078852663862
 20
113.0928844136542
 30
0.0
 11
79.53555201230654
 21
115.3604867252966
 31
0.0
  0
LINE
  5
39B29
330
2
100
AcDbEntity
  8
0
  6
Continuous
 62
     7
100
AcDbLine
 10
79.02788526623623
 20
115.8868844136532
 30
0.0
 11
79.53555201230506
 21
115.3604867252975
 31
0.0
  0
LINE
  5
39B2A
330
2
100
AcDbEntity
  8
0
  6
Continuous
 62
     4
100
AcDbLine
 10
79.43702257988741
 20
115.3640574019378
 30
0.0
 11
79.0278852662367
 21
115.3788844136529
 31
0.0
  0
LINE
  5
39B2B
330
2
100
AcDbEntity
  8
0
  6
Continuous
 62
     4
100
AcDbLine
 10
79.0278852662367
 20
115.7933991172149
 30
0.0
 11
79.0278852662367
 21
115.3788844136525
 31
0.0
  0
LINE
  5
39B2C
330
2
100
AcDbEntity
  8
0
  6
Continuous
 62
     4
100
AcDbLine
 10
79.43702257988741
 20
79.83371142536862
 30
0.0
 11
79.0278852662367
 21
79.81888441365345
 31
0.0
  0
HATCH
  5
39B2D
330
2
100
AcDbEntity
  8
0
  6
Continuous
 62
     4
100
AcDbHatch
 10
0.0
 20
0.0
 30
0.0
210
0.0
220
0.0
230
1.0
  2
ANSI31
 70
     0
 71
     0
 91
       11
 92
        7
 72
     1
 73
     1
 93
        5
 10
228.6326241148204
 20
91.60460549538811
 42
0.3021066193619561
 10
242.9201241148204
 20
82.10488441365487
 42
0.0
 10
242.9201241148203
 20
89.59888441365364
 42
-0.4142135623730992
 10
234.9201241148203
 20
97.59888441365365
 42
0.0
 10
228.6326241148203
 20
97.59888441365365
 42
0.0
 97
        0
 92
        7
 72
     1
 73
     1
 93
        4
 10
234.9201241148203
 20
97.59888441365365
 42
0.4142135623730992
 10
242.9201241148204
 20
89.59888441365364
 42
0.0
 10
242.9201241148203
 20
90.39888441365382
 42
-0.4142135623730992
 10
235.7201241148203
 20
97.59888441365365
 42
0.0
 97
        0
 92
        7
 72
     1
 73
     1
 93
        5
 10
242.9201241148203
 20
113.0928844136524
 42
0.3021066193619561
 10
228.6326241148203
 20
103.5931633319187
 42
0.0
 10
228.6326241148203
 20
97.59888441365365
 42
0.0
 10
234.9201241148203
 20
97.59888441365365
 42
-0.4142135623730951
 10
242.9201241148204
 20
105.5988844136536
 42
0.0
 97
        0
 92
        7
 72
     1
 73
     1
 93
        4
 10
242.9201241148203
 20
105.5988844136536
 42
0.4142135623730951
 10
234.9201241148203
 20
97.59888441365365
 42
0.0
 10
235.7201241148203
 20
97.59888441365365
 42
-0.4142135623730951
 10
242.9201241148204
 20
104.7988844136534
 42
0.0
 97
        0
 92
        7
 72
     1
 73
     1
 93
        4
 10
250.9201241148203
 20
97.59888441365365
 42
0.4142135623730951
 10
242.9201241148204
 20
105.5988844136536
 42
0.0
 10
242.9201241148204
 20
104.7988844136534
 42
-0.4142135623730951
 10
250.1201241148203
 20
97.59888441365365
 42
0.0
 97
        0
 92
        7
 72
     1
 73
     1
 93
        5
 10
257.2076241148203
 20
103.5931633319192
 42
0.3021066193619561
 10
242.9201241148204
 20
113.0928844136524
 42
0.0
 10
242.9201241148204
 20
105.5988844136536
 42
-0.4142135623730951
 10
250.9201241148203
 20
97.59888441365365
 42
0.0
 10
257.2076241148203
 20
97.59888441365365
 42
0.0
 97
        0
 92
        7
 72
     1
 73
     1
 93
        7
 10
242.9201241148205
 20
82.10488441365487
 42
0.3021066193619561
 10
257.2076241148203
 20
91.60460549538811
 42
0.0
 10
257.2076241148203
 20
97.59888441365365
 42
0.0
 10
250.9201241148203
 20
97.59888441365365
 42
0.0
 10
250.1201241148203
 20
97.59888441365365
 42
-0.4142135623730951
 10
242.9201241148204
 20
90.39888441365382
 42
0.0
 10
242.9201241148204
 20
89.59888441365364
 42
0.0
 97
        0
 92
        9
 93
        4
 72
     1
 10
238.5079920804644
 20
75.11018638488895
 11
247.3322561491764
 21
75.11018638488895
 72
     1
 10
247.3322561491764
 20
75.11018638488895
 11
247.3322561491764
 21
70.60959583370777
 72
     1
 10
247.3322561491764
 20
70.60959583370777
 11
238.5079920804644
 21
70.60959583370777
 72
     1
 10
238.5079920804644
 20
70.60959583370777
 11
238.5079920804644
 21
75.11018638488895
 97
        0
 92
        9
 93
        4
 72
     1
 10
238.5079920804644
 20
75.11018638488895
 11
247.3322561491764
 21
75.11018638488895
 72
     1
 10
247.3322561491764
 20
75.11018638488895
 11
247.3322561491764
 21
70.60959583370777
 72
     1
 10
247.3322561491764
 20
70.60959583370777
 11
238.5079920804644
 21
70.60959583370777
 72
     1
 10
238.5079920804644
 20
70.60959583370777
 11
238.5079920804644
 21
75.11018638488895
 97
        0
 92
        9
 93
        4
 72
     1
 10
155.9735197363235
 20
149.7446561823685
 11
166.2822507964464
 21
149.7446561823685
 72
     1
 10
166.2822507964464
 20
149.7446561823685
 11
166.2822507964464
 21
145.2446561823685
 72
     1
 10
166.2822507964464
 20
145.2446561823685
 11
155.9735197363235
 21
145.2446561823685
 72
     1
 10
155.9735197363235
 20
145.2446561823685
 11
155.9735197363235
 21
149.7446561823685
 97
        0
 92
        9
 93
        4
 72
     1
 10
238.5079920804644
 20
75.11018638488895
 11
247.3322561491764
 21
75.11018638488895
 72
     1
 10
247.3322561491764
 20
75.11018638488895
 11
247.3322561491764
 21
70.60959583370777
 72
     1
 10
247.3322561491764
 20
70.60959583370777
 11
238.5079920804644
 21
70.60959583370777
 72
     1
 10
238.5079920804644
 20
70.60959583370777
 11
238.5079920804644
 21
75.11018638488895
 97
        0
 75
     1
 76
     1
 52
0.0
 41
1.0
 77
     0
 78
     1
 53
45.0
 43
-635.4361266296199
 44
2154.405726285887
 45
-2.245064030267288
 46
2.245064030267288
 79
     0
 47
0.0
 98
        7
 10
234.59444605357
 20
91.18258687926482
 10
236.4764291565335
 20
93.72879931268608
 10
234.59444605357
 20
102.585190385455
 10
237.7365621441337
 20
102.9579545018969
 10
245.4340114163647
 20
104.5579860921925
 10
248.7205627910252
 20
105.4228680328924
 10
252.1368464567906
 20
93.40100905716099
1001
ACAD
1010
0.0
1020
0.0
1030
0.0
1001
HATCHBACKGROUNDCOLOR
1071
-939524096
1000
없음
1000

  0
LINE
  5
39B2E
330
2
100
AcDbEntity
  8
0
  6
Continuous
 62
     7
100
AcDbLine
 10
159.2528852663844
 20
91.60460549538766
 30
0.0
 11
159.2528852663844
 21
97.59888441365456
 31
0.0
  0
LINE
  5
39B2F
330
2
100
AcDbEntity
  8
0
  6
Continuous
 62
     7
100
AcDbLine
 10
165.6028852663848
 20
91.60460549538766
 30
0.0
 11
165.6028852663848
 21
97.59888441365456
 31
0.0
  0
LINE
  5
39B30
330
2
100
AcDbEntity
  8
0
  6
Continuous
 62
     7
100
AcDbLine
 10
165.6028852663848
 20
91.60460549538766
 30
0.0
 11
159.2528852663844
 21
91.60460549538766
 31
0.0
  0
ARC
  5
39B31
330
2
100
AcDbEntity
  8
0
  6
Continuous
 62
     7
100
AcDbCircle
 10
144.5571931755591
 20
98.95914122999512
 30
0.0
 40
22.29372897147213
100
AcDbArc
 50
340.737744424755
 51
356.5019125350184
  0
LINE
  5
39B32
330
2
100
AcDbEntity
  8
0
  6
Continuous
 62
     2
100
AcDbLine
 10
165.6028852663849
 20
91.60460549538811
 30
0.0
 11
162.4278852663846
 21
97.59888441365456
 31
0.0
  0
LINE
  5
39B33
330
2
100
AcDbEntity
  8
0
  6
Continuous
 62
     2
100
AcDbLine
 10
162.4278852663846
 20
97.59888441365456
 30
0.0
 11
159.2528852663844
 21
91.60460549538766
 31
0.0
  0
CIRCLE
  5
39B36
330
2
100
AcDbEntity
  8
0
  6
Continuous
 62
     7
100
AcDbCircle
 10
242.9201241148203
 20
97.59888441365365
 30
0.0
 40
15.49399999999877
  0
CIRCLE
  5
39B37
330
2
100
AcDbEntity
  8
0
  6
Continuous
 62
     7
100
AcDbCircle
 10
242.9201241148204
 20
97.59888441365365
 30
0.0
 40
15.49399999999877
  0
LINE
  5
39B38
330
2
100
AcDbEntity
  8
0
  6
Continuous
 62
     7
100
AcDbLine
 10
228.6326241148203
 20
91.60460549538811
 30
0.0
 11
228.6326241148203
 21
103.5931633319187
 31
0.0
  0
LINE
  5
39B39
330
2
100
AcDbEntity
  8
0
  6
Continuous
 62
     7
100
AcDbLine
 10
257.2076241148203
 20
91.60460549538811
 30
0.0
 11
257.2076241148203
 21
103.5931633319192
 31
0.0
  0
ARC
  5
39B3A
330
2
100
AcDbEntity
  8
0
  6
Continuous
 62
     3
100
AcDbCircle
 10
242.9201241148203
 20
97.59888441365365
 30
0.0
 40
8.0
100
AcDbArc
 50
351.3349935741707
 51
278.1332502531084
  0
CIRCLE
  5
39B3B
330
2
100
AcDbEntity
  8
0
  6
Continuous
 62
     7
100
AcDbCircle
 10
242.9201241148203
 20
97.59888441365365
 30
0.0
 40
7.2
  0
LINE
  5
39B3C
330
2
100
AcDbEntity
  8
0
  6
Continuous
 62
     3
100
AcDbLine
 10
242.4201241148204
 20
97.59888441365365
 30
0.0
 11
243.4201241148204
 21
97.59888441365365
 31
0.0
  0
LINE
  5
39B3D
330
2
100
AcDbEntity
  8
0
  6
Continuous
 62
     3
100
AcDbLine
 10
242.9201241148204
 20
97.09888441365364
 30
0.0
 11
242.9201241148204
 21
98.09888441365366
 31
0.0
  0
LINE
  5
39B3E
330
2
100
AcDbEntity
  8
0
  6
Continuous
 62
     3
100
AcDbLine
 10
243.9201241148204
 20
97.59888441365365
 30
0.0
 11
258.9141241148192
 21
97.59888441365365
 31
0.0
  0
LINE
  5
39B3F
330
2
100
AcDbEntity
  8
0
  6
Continuous
 62
     3
100
AcDbLine
 10
241.9201241148204
 20
97.59888441365365
 30
0.0
 11
226.9261241148216
 21
97.59888441365365
 31
0.0
  0
LINE
  5
39B40
330
2
100
AcDbEntity
  8
0
  6
Continuous
 62
     3
100
AcDbLine
 10
242.9201241148204
 20
98.59888441365365
 30
0.0
 11
242.9201241148204
 21
113.5928844136524
 31
0.0
  0
LINE
  5
39B41
330
2
100
AcDbEntity
  8
0
  6
Continuous
 62
     3
100
AcDbLine
 10
242.9201241148204
 20
96.59888441365366
 30
0.0
 11
242.9201241148204
 21
81.60488441365487
 31
0.0
  0
ARC
  5
39B43
330
2
100
AcDbEntity
  8
0
  6
Continuous
 62
     7
100
AcDbCircle
 10
180.2985773572102
 20
98.95914122999512
 30
0.0
 40
22.29372897147213
100
AcDbArc
 50
183.4980874649816
 51
199.262255575245
  0
LINE
  5
39CBF
330
2
100
AcDbEntity
  8
0
  6
Continuous
 62
     3
100
AcDbLine
 10
142.1078852663854
 20
82.07037758252965
 30
0.0
 11
142.1078852663854
 21
58.23174591989084
 31
0.0
  0
MTEXT
  5
39CC0
330
2
100
AcDbEntity
  8
0
  6
Continuous
 62
     2
100
AcDbMText
 10
142.108419435533
 20
55.78293081609479
 30
0.0
 40
3.0
 41
0.0
 46
0.0
 71
     5
 72
     1
  1
2.7
 73
     1
 44
1.0
  0
VIEWPORT
  5
2C7EC
102
{ACAD_XDICTIONARY
360
2C7ED
102
}
330
1B
100
AcDbEntity
 67
     1
  8
0
  6
Continuous
 62
     7
100
AcDbViewport
 10
212.4908200734394
 20
97.5
 30
0.0
 40
464.9816401468789
 41
210.0
 68
     1
 69
     1
 12
212.4908200734394
 22
97.5
 13
0.0
 23
0.0
 14
2.0
 24
2.0
 15
2.0
 25
2.0
 16
0.0
 26
0.0
 36
1.0
 17
0.0
 27
0.0
 37
0.0
 42
50.0
 43
0.0
 44
0.0
 45
210.0
 50
0.0
 51
0.0
 72
  1000
 90
   823328
  1

281
     0
 71
     1
 74
     0
110
0.0
120
0.0
130
0.0
111
1.0
121
0.0
131
0.0
112
0.0
122
1.0
132
0.0
 79
     0
146
0.0
170
     0
 61
     5
348
2E
292
     1
282
     1
141
0.0
142
0.0
 63
   250
421
  3355443
  0
ENDSEC
  0
SECTION
  2
OBJECTS
  0
DICTIONARY
  5
B
330
0
100
AcDbDictionary
281
     1
  3
ACAD_CIP_PREVIOUS_PRODUCT_INFO
350
BE4
  3
ACAD_COLOR
350
3F
  3
ACAD_DETAILVIEWSTYLE
350
BDC
  3
ACAD_GROUP
350
3A
  3
ACAD_LAYOUT
350
17
  3
ACAD_MATERIAL
350
D
  3
ACAD_MLEADERSTYLE
350
42
  3
ACAD_MLINESTYLE
350
3B
  3
ACAD_PLOTSETTINGS
350
3C
  3
ACAD_PLOTSTYLENAME
350
A
  3
ACAD_SCALELIST
350
40
  3
ACAD_SECTIONVIEWSTYLE
350
BDA
  3
ACAD_TABLESTYLE
350
41
  3
ACAD_VISUALSTYLE
350
2F
  3
ACDB_RECOMPOSE_DATA
350
39DA6
  3
AcDbVariableDictionary
350
BB8
  3
AEC_PROPERTY_SET_DEFS
350
24C9
  0
DICTIONARY
  5
31
330
2C
100
AcDbDictionary
280
     1
281
     1
  0
DICTIONARY
  5
22
330
21
100
AcDbDictionary
280
     1
281
     1
  3
ACAD_LAYERSTATES
360
23
  0
DICTIONARY
  5
7
330
6
100
AcDbDictionary
280
     1
281
     1
  3
ADSK_XREC_LAYER_RECONCILED
360
8
  0
DICTIONARY
  5
3
330
2
100
AcDbDictionary
280
     1
281
     1
  3
ACAD_SORTENTS
360
BB0
  0
DICTIONARY
  5
2C7ED
330
2C7EC
100
AcDbDictionary
280
     1
281
     1
  3
ASDK_XREC_ANNOTATION_SCALE_INFO
360
2C7EE
  0
XRECORD
  5
BE4
102
{ACAD_REACTORS
330
B
102
}
330
B
100
AcDbXrecord
280
     1
300
ACD
300
2014
300
ACD_F_S
  0
DICTIONARY
  5
3F
102
{ACAD_REACTORS
330
B
102
}
330
B
100
AcDbDictionary
281
     1
  0
DICTIONARY
  5
BDC
102
{ACAD_REACTORS
330
B
102
}
330
B
100
AcDbDictionary
281
     1
  3
Imperial24
350
283CD
  3
Metric50
350
BDD
  0
DICTIONARY
  5
3A
102
{ACAD_REACTORS
330
B
102
}
330
B
100
AcDbDictionary
281
     1
  0
DICTIONARY
  5
17
102
{ACAD_REACTORS
330
B
102
}
330
B
100
AcDbDictionary
281
     1
  3
Model
350
16
  3
배치1
350
1E
  0
DICTIONARY
  5
D
102
{ACAD_REACTORS
330
B
102
}
330
B
100
AcDbDictionary
281
     1
  3
ByBlock
350
3E
  3
ByLayer
350
3D
  3
Global
350
C
  0
DICTIONARY
  5
42
102
{ACAD_REACTORS
330
B
102
}
330
B
100
AcDbDictionary
281
     1
  3
Standard
350
BD9
  0
DICTIONARY
  5
3B
102
{ACAD_REACTORS
330
B
102
}
330
B
100
AcDbDictionary
281
     1
  3
Standard
350
43
  0
DICTIONARY
  5
3C
102
{ACAD_REACTORS
330
B
102
}
330
B
100
AcDbDictionary
281
     1
  0
ACDBDICTIONARYWDFLT
  5
A
102
{ACAD_REACTORS
330
B
102
}
330
B
100
AcDbDictionary
281
     1
  3
Normal
350
9
100
AcDbDictionaryWithDefault
340
9
  0
DICTIONARY
  5
40
102
{ACAD_REACTORS
330
B
102
}
330
B
100
AcDbDictionary
281
     1
  3
A0
350
48
  3
A1
350
49
  3
A2
350
4A
  3
A3
350
4B
  3
A4
350
4C
  3
A5
350
4D
  3
A6
350
4E
  3
A7
350
4F
  3
A8
350
50
  3
A9
350
51
  3
B0
350
52
  3
B1
350
53
  3
B2
350
54
  3
B3
350
55
  3
B4
350
56
  3
B5
350
57
  3
B6
350
58
  0
DICTIONARY
  5
BDA
102
{ACAD_REACTORS
330
B
102
}
330
B
100
AcDbDictionary
281
     1
  3
Imperial24
350
283CC
  3
Metric50
350
BDB
  0
DICTIONARY
  5
41
102
{ACAD_REACTORS
330
B
102
}
330
B
100
AcDbDictionary
281
     1
  3
Standard
350
44
  0
DICTIONARY
  5
2F
102
{ACAD_REACTORS
330
B
102
}
330
B
100
AcDbDictionary
281
     1
  3
2dWireframe
350
2E
  3
3D Hidden
350
1A64
  3
3dWireframe
350
47
  3
Basic
350
BC7
  3
Brighten
350
BCC
  3
ColorChange
350
BD0
  3
Conceptual
350
BCA
  3
Dim
350
BCB
  3
EdgeColorOff
350
BD8
  3
Facepattern
350
BCF
  3
Flat
350
BC3
  3
FlatWithEdges
350
BC4
  3
Gouraud
350
BC5
  3
GouraudWithEdges
350
BC6
  3
Hidden
350
BC9
  3
JitterOff
350
BD6
  3
Linepattern
350
BCE
  3
OverhangOff
350
BD7
  3
Realistic
350
46
  3
Shaded
350
BD5
  3
Shaded with edges
350
BD4
  3
Shades of Gray
350
BD1
  3
Sketchy
350
BD2
  3
Thicken
350
BCD
  3
Wireframe
350
BC8
  3
X-Ray
350
BD3
  0
XRECORD
  5
39DA6
102
{ACAD_REACTORS
330
B
102
}
330
B
100
AcDbXrecord
280
     1
 90
        1
330
44
330
BDB
330
BDD
330
283CC
330
283CD
  0
DICTIONARY
  5
BB8
102
{ACAD_REACTORS
330
B
102
}
330
B
100
AcDbDictionary
281
     1
  3
CANNOSCALE
350
BBE
  3
CMLEADERSTYLE
350
BBA
  3
CTABLESTYLE
350
BB9
  3
CVIEWDETAILSTYLE
350
BBB
  3
CVIEWSECTIONSTYLE
350
BBC
  3
DIMASSOC
350
C3B
  3
HIDETEXT
350
C39
  3
HPCOLOR
350
FF3
  3
INDEXCTL
350
C38
  3
LAYEREVAL
350
BC0
  3
LAYERNOTIFY
350
BC1
  3
LIGHTINGUNITS
350
BBF
  3
MSLTSCALE
350
BBD
  3
SOLIDHIST
350
C3C
  3
SORTENTS
350
C37
  0
DICTIONARY
  5
24C9
102
{ACAD_REACTORS
330
B
102
}
330
B
100
AcDbDictionary
281
     1
  0
DICTIONARY
  5
23
102
{ACAD_REACTORS
330
22
102
}
330
22
100
AcDbDictionary
281
     1
  0
XRECORD
  5
8
102
{ACAD_REACTORS
330
7
102
}
330
7
100
AcDbXrecord
280
     1
290
     1
  0
SORTENTSTABLE
  5
BB0
102
{ACAD_REACTORS
330
3
102
}
330
3
100
AcDbSortentsTable
330
2
331
28498
  5
29114
331
28368
  5
28393
331
29439
  5
2923D
331
29430
  5
29220
331
29219
  5
29431
331
29112
  5
31D64
331
283E1
  5
29513
331
2836B
  5
28395
331
283AB
  5
29215
331
2835C
  5
2837D
331
29433
  5
29224
331
2921C
  5
29434
331
28394
  5
2910F
331
283AE
  5
29218
331
2921F
  5
29437
331
29436
  5
29236
331
28380
  5
28498
331
283DB
  5
2910D
331
28374
  5
283AD
331
28455
  5
31D8B
331
28365
  5
28380
331
28371
  5
283AA
331
2837D
  5
28481
331
28356
  5
2837A
331
29296
  5
2948D
331
2910F
  5
2A377
331
283DE
  5
2943C
331
28377
  5
283D6
331
29216
  5
2929F
331
2942D
  5
2921C
331
2837A
  5
283DB
331
29110
  5
2A8F1
331
28378
  5
283D7
331
28369
  5
28394
331
283A9
  5
29115
331
28392
  5
29004
331
2837B
  5
2845A
331
2836C
  5
28396
331
29234
  5
29298
331
283AC
  5
29216
331
2835D
  5
2837E
331
2921D
  5
29435
331
29434
  5
29225
331
28395
  5
29110
331
2929D
  5
2923E
331
283D6
  5
2924F
331
2836F
  5
283A7
331
29437
  5
29237
331
29220
  5
29238
331
2923A
  5
29251
331
29214
  5
2951B
331
2944B
  5
2921B
331
2910D
  5
2951C
331
28375
  5
283AE
331
28357
  5
2837B
331
29217
  5
292A0
331
2942E
  5
2921D
331
28366
  5
28392
331
28372
  5
283AB
331
2837E
  5
28482
331
2921A
  5
29432
331
29431
  5
29221
331
29218
  5
29430
331
1DEB1
  5
28376
331
29111
  5
2A92C
331
283E0
  5
29511
331
283AA
  5
29116
331
2835B
  5
2837C
331
2921B
  5
29433
331
29432
  5
29223
331
28393
  5
2910E
331
2837C
  5
2845E
331
28379
  5
283D9
331
29438
  5
2923C
331
283AD
  5
29217
331
2844E
  5
31D66
331
2835E
  5
2837F
331
29435
  5
2943B
331
28396
  5
29111
331
2837F
  5
2848D
331
2924F
  5
29299
331
283D7
  5
29253
331
28370
  5
283A9
331
28361
  5
28378
331
29221
  5
29438
331
28373
  5
283AC
331
28454
  5
31D68
331
28355
  5
28379
331
29215
  5
2929A
331
28352
  5
28377
331
2910E
  5
295E3
331
283DD
  5
2943D
331
283A7
  5
29112
331
2942F
  5
2921F
331
28376
  5
283D4
331
2921E
  5
29436
  0
XRECORD
  5
2C7EE
102
{ACAD_REACTORS
330
2C7ED
102
}
330
2C7ED
100
AcDbXrecord
280
     1
 90
        1
340
48
  0
ACDBDETAILVIEWSTYLE
  5
283CD
102
{ACAD_XDICTIONARY
360
39DA4
102
}
102
{ACAD_REACTORS
330
BDC
102
}
330
BDC
100
AcDbModelDocViewStyle
 70
     0
  3
Imperial24
290
     0
100
AcDbDetailViewStyle
 70
     0
 71
     0
 90
        3
 71
     1
340
25
 62
   256
 40
0.24
340
0
 62
   256
 40
0.24
300

 40
0.36
280
     3
 71
     2
340
14
 90
       25
 62
   256
 71
     3
340
25
 62
   256
 40
0.24
 90
        1
 40
0.75
 90
        1
300
%<\AcVar ViewType \f "%tc1">% %<\AcVar ViewDetailId>%\PSCALE %<\AcVar ViewScale \f "%sn">%
 71
     4
340
14
 90
       25
 62
   256
340
14
 90
       25
 62
   256
280
     0
  0
ACDBDETAILVIEWSTYLE
  5
BDD
102
{ACAD_XDICTIONARY
360
39DA0
102
}
102
{ACAD_REACTORS
330
BDC
102
}
330
BDC
100
AcDbModelDocViewStyle
 70
     0
  3
Metric50
290
     0
100
AcDbDetailViewStyle
 70
     0
 71
     0
 90
        3
 71
     1
340
25
 62
   256
 40
5.0
340
0
 62
   256
 40
5.0
300

 40
0.0
280
     1
 71
     2
340
14
 90
       25
 62
   256
 71
     3
340
25
 62
   256
 40
5.0
 90
        0
 40
15.0
 90
        1
300
%<\AcVar ViewDetailId>% (%<\AcVar ViewScale \f "%sn">%)
 71
     4
340
14
 90
       25
 62
   256
340
14
 90
       25
 62
   256
280
     0
  0
LAYOUT
  5
16
102
{ACAD_XDICTIONARY
360
18
102
}
102
{ACAD_REACTORS
330
17
102
}
330
17
100
AcDbPlotSettings
  1

  2
DWG To PDF.pc3
  4
ISO_expand_A4_(297.00_x_210.00_MM)
  6

 40
5.793749809265136
 41
10.79374980926513
 42
5.79376220703125
 43
10.79374694824219
 44
297.0
 45
210.0
 46
10.74179700476176
 47
0.0
 48
214.2303289092835
 49
-5.650030662565313
140
426.8811481846322
141
146.1562857013982
142
1.0
143
0.8057125389846563
 70
 11956
 72
     1
 73
     0
 74
     4
  7
ksm0910.ctb
 75
     0
147
1.241137442468229
 76
     0
 77
     2
 78
   300
148
-214.2303289092835
149
5.650030662565313
100
AcDbLayout
  1
Model
 70
     1
 71
     0
 10
0.0
 20
0.0
 11
12.0
 21
9.0
 12
0.0
 22
0.0
 32
0.0
 14
0.0
 24
0.0
 34
0.0
 15
0.0
 25
0.0
 35
0.0
146
0.0
 13
0.0
 23
0.0
 33
0.0
 16
1.0
 26
0.0
 36
0.0
 17
0.0
 27
1.0
 37
0.0
 76
     0
330
2
331
2D
1001
ACAD_PSEXT
1000
DWG To PDF.pc3
1000
DWG To PDF
1000
파일
1000

1070
     0
  0
LAYOUT
  5
1E
102
{ACAD_XDICTIONARY
360
1F
102
}
102
{ACAD_REACTORS
330
17
102
}
330
17
100
AcDbPlotSettings
  1

  2
none_device
  4
ISO_A4_(210.00_x_297.00_MM)
  6

 40
7.5
 41
20.0
 42
7.5
 43
20.0
 44
210.0
 45
297.0
 46
0.0
 47
0.0
 48
0.0
 49
0.0
140
0.0
141
0.0
142
1.0
143
1.0
 70
   688
 72
     1
 73
     1
 74
     5
  7
ksm0910.ctb
 75
    16
147
1.0
 76
     0
 77
     2
 78
   300
148
0.0
149
0.0
100
AcDbLayout
  1
배치1
 70
     1
 71
     1
 10
-20.0
 20
-7.5
 11
277.0
 21
202.5
 12
0.0
 22
0.0
 32
0.0
 14
1.000000000000000E+20
 24
1.000000000000000E+20
 34
1.000000000000000E+20
 15
-1.000000000000000E+20
 25
-1.000000000000000E+20
 35
-1.000000000000000E+20
146
0.0
 13
0.0
 23
0.0
 33
0.0
 16
1.0
 26
0.0
 36
0.0
 17
0.0
 27
1.0
 37
0.0
 76
     0
330
1B
331
2C7EC
1001
ACAD_PSEXT
1000
없음
1000
없음
1000
해당 없음
1000
배치가 새로운 플로터 구성을 선택할 때까지 플롯되지 않습니다.
1070
     0
  0
MATERIAL
  5
3E
102
{ACAD_REACTORS
330
D
102
}
330
D
100
AcDbMaterial
  1
ByBlock
 94
       63
  0
MATERIAL
  5
3D
102
{ACAD_REACTORS
330
D
102
}
330
D
100
AcDbMaterial
  1
ByLayer
 94
       63
  0
MATERIAL
  5
C
102
{ACAD_XDICTIONARY
360
E
102
}
102
{ACAD_REACTORS
330
D
102
}
330
D
100
AcDbMaterial
  1
Global
 43
0.0007999999797903
 43
0.0
 43
0.0
 43
0.0
 43
0.0
 43
0.0007999999797903
 43
0.0
 43
0.0
 43
0.0
 43
0.0
 43
1.0
 43
0.0
 43
0.0
 43
0.0
 43
0.0
 43
1.0
 49
0.0007999999797903
 49
0.0
 49
0.0
 49
0.0
 49
0.0
 49
0.0007999999797903
 49
0.0
 49
0.0
 49
0.0
 49
0.0
 49
1.0
 49
0.0
 49
0.0
 49
0.0
 49
0.0
 49
1.0
142
0.0007999999797903
142
0.0
142
0.0
142
0.0
142
0.0
142
0.0007999999797903
142
0.0
142
0.0
142
0.0
142
0.0
142
1.0
142
0.0
142
0.0
142
0.0
142
0.0
142
1.0
144
0.0007999999797903
144
0.0
144
0.0
144
0.0
144
0.0
144
0.0007999999797903
144
0.0
144
0.0
144
0.0
144
0.0
144
1.0
144
0.0
144
0.0
144
0.0
144
0.0
144
1.0
 94
       63
1001
ACAD
1070
    -1
1070
     3
1070
     0
1000

1071
        0
1070
     0
  0
MLEADERSTYLE
  5
BD9
102
{ACAD_REACTORS
330
42
330
3731F
330
37321
330
39009
330
39024
330
397DE
102
}
330
42
100
AcDbMLeaderStyle
179
     2
170
     2
171
     1
172
     0
 90
        2
 40
0.0
 41
0.0
173
     1
 91
-1023410173
340
28
 92
       -2
290
     1
 42
2.0
291
     1
 43
0.36
  3
Standard
 44
4.0
300

342
25
174
     1
178
     6
175
     1
176
     0
 93
-1023410174
 45
3.0
292
     0
297
     0
 46
4.0
 94
-1056964608
 47
1.0
 49
1.0
140
1.0
293
     1
141
0.0
294
     1
177
     0
142
1.0
295
     0
296
     0
143
0.125
271
     0
272
     9
273
     9
298
     1
  0
MLINESTYLE
  5
43
102
{ACAD_REACTORS
330
3B
102
}
330
3B
100
AcDbMlineStyle
  2
STANDARD
 70
     0
  3

 62
   256
 51
90.0
 52
90.0
 71
     2
 49
0.5
 62
   256
  6
BYLAYER
 49
-0.5
 62
   256
  6
BYLAYER
  0
ACDBPLACEHOLDER
  5
9
102
{ACAD_REACTORS
330
A
102
}
330
A
  0
SCALE
  5
48
102
{ACAD_REACTORS
330
40
102
}
330
40
100
AcDbScale
 70
     0
300
1:1
140
1.0
141
1.0
290
     1
  0
SCALE
  5
49
102
{ACAD_REACTORS
330
40
102
}
330
40
100
AcDbScale
 70
     0
300
1:2
140
1.0
141
2.0
290
     0
  0
SCALE
  5
4A
102
{ACAD_REACTORS
330
40
102
}
330
40
100
AcDbScale
 70
     0
300
1:4
140
1.0
141
4.0
290
     0
  0
SCALE
  5
4B
102
{ACAD_REACTORS
330
40
102
}
330
40
100
AcDbScale
 70
     0
300
1:5
140
1.0
141
5.0
290
     0
  0
SCALE
  5
4C
102
{ACAD_REACTORS
330
40
102
}
330
40
100
AcDbScale
 70
     0
300
1:8
140
1.0
141
8.0
290
     0
  0
SCALE
  5
4D
102
{ACAD_REACTORS
330
40
102
}
330
40
100
AcDbScale
 70
     0
300
1:10
140
1.0
141
10.0
290
     0
  0
SCALE
  5
4E
102
{ACAD_REACTORS
330
40
102
}
330
40
100
AcDbScale
 70
     0
300
1:16
140
1.0
141
16.0
290
     0
  0
SCALE
  5
4F
102
{ACAD_REACTORS
330
40
102
}
330
40
100
AcDbScale
 70
     0
300
1:20
140
1.0
141
20.0
290
     0
  0
SCALE
  5
50
102
{ACAD_REACTORS
330
40
102
}
330
40
100
AcDbScale
 70
     0
300
1:30
140
1.0
141
30.0
290
     0
  0
SCALE
  5
51
102
{ACAD_REACTORS
330
40
102
}
330
40
100
AcDbScale
 70
     0
300
1:40
140
1.0
141
40.0
290
     0
  0
SCALE
  5
52
102
{ACAD_REACTORS
330
40
102
}
330
40
100
AcDbScale
 70
     0
300
1:50
140
1.0
141
50.0
290
     0
  0
SCALE
  5
53
102
{ACAD_REACTORS
330
40
102
}
330
40
100
AcDbScale
 70
     0
300
1:100
140
1.0
141
100.0
290
     0
  0
SCALE
  5
54
102
{ACAD_REACTORS
330
40
102
}
330
40
100
AcDbScale
 70
     0
300
2:1
140
2.0
141
1.0
290
     0
  0
SCALE
  5
55
102
{ACAD_REACTORS
330
40
102
}
330
40
100
AcDbScale
 70
     0
300
4:1
140
4.0
141
1.0
290
     0
  0
SCALE
  5
56
102
{ACAD_REACTORS
330
40
102
}
330
40
100
AcDbScale
 70
     0
300
8:1
140
8.0
141
1.0
290
     0
  0
SCALE
  5
57
102
{ACAD_REACTORS
330
40
102
}
330
40
100
AcDbScale
 70
     0
300
10:1
140
10.0
141
1.0
290
     0
  0
SCALE
  5
58
102
{ACAD_REACTORS
330
40
102
}
330
40
100
AcDbScale
 70
     0
300
100:1
140
100.0
141
1.0
290
     0
  0
ACDBSECTIONVIEWSTYLE
  5
283CC
102
{ACAD_XDICTIONARY
360
39DA2
102
}
102
{ACAD_REACTORS
330
BDA
102
}
330
BDA
100
AcDbModelDocViewStyle
 70
     0
  3
Imperial24
290
     0
100
AcDbSectionViewStyle
 70
     0
 71
     0
 90
       78
 71
     1
340
25
 62
   256
 40
0.24
340
0
340
0
 62
   256
 40
0.24
300
I, O, Q, S, X, Z
 40
0.48
 90
        3
 40
0.18
 90
        1
 71
     2
340
14
 90
       25
 62
   256
340
14
 90
       50
 62
   256
 40
0.24
 40
0.0
 40
0.24
 71
     3
340
25
 62
   256
 40
0.24
 90
        1
 40
0.75
 90
        1
300
%<\AcVar ViewType \f "%tc1">% %<\AcVar ViewSectionStartId>%-%<\AcVar ViewSectionEndId>%\PSCALE %<\AcVar ViewScale \f "%sn">%
 71
     4
 62
   256
 62
   257
300
ANSI31
 40
1.0
 90
        0
290
     0
290
     0
 90
        6
 40
0.0
 40
1.570796326794896
 40
0.2617993877991494
 40
1.308996938995747
 40
-0.2617993877991494
 40
1.832595714594046
  0
ACDBSECTIONVIEWSTYLE
  5
BDB
102
{ACAD_XDICTIONARY
360
39D9E
102
}
102
{ACAD_REACTORS
330
BDA
102
}
330
BDA
100
AcDbModelDocViewStyle
 70
     0
  3
Metric50
290
     0
100
AcDbSectionViewStyle
 70
     0
 71
     0
 90
      102
 71
     1
340
25
 62
   256
 40
5.0
340
0
340
0
 62
   256
 40
5.0
300
I, O, Q, S, X, Z
 40
10.0
 90
        0
 40
2.5
 90
        0
 71
     2
340
14
 90
       25
 62
   256
340
14
 90
       50
 62
   256
 40
5.0
 40
2.5
 40
5.0
 71
     3
340
25
 62
   256
 40
5.0
 90
        0
 40
15.0
 90
        1
300
%<\AcVar ViewSectionStartId>%-%<\AcVar ViewSectionEndId>% (%<\AcVar ViewScale \f "%sn">%)
 71
     4
 62
   256
 62
   257
300
ANSI31
 40
1.0
 90
        0
290
     0
290
     0
 90
        6
 40
0.0
 40
1.570796326794896
 40
0.2617993877991494
 40
1.308996938995747
 40
-0.2617993877991494
 40
1.832595714594046
  0
TABLESTYLE
  5
44
102
{ACAD_XDICTIONARY
360
45
102
}
102
{ACAD_REACTORS
330
41
102
}
330
41
100
AcDbTableStyle
280
     0
  3
Standard
 70
     0
 71
     0
 40
1.5
 41
1.5
280
     0
281
     0
  7
Standard
140
4.5
170
     2
 62
     0
 63
     7
283
     0
 90
      512
 91
        0
  1

274
    -2
284
     1
 64
     0
275
    -2
285
     1
 65
     0
276
    -2
286
     1
 66
     0
277
    -2
287
     1
 67
     0
278
    -2
288
     1
 68
     0
279
    -2
289
     1
 69
     0
  7
Standard
140
6.0
170
     5
 62
     0
 63
     7
283
     0
 90
      512
 91
        0
  1

274
    -2
284
     1
 64
     0
275
    -2
285
     1
 65
     0
276
    -2
286
     1
 66
     0
277
    -2
287
     1
 67
     0
278
    -2
288
     1
 68
     0
279
    -2
289
     1
 69
     0
  7
Standard
140
4.5
170
     5
 62
     0
 63
     7
283
     0
 90
      512
 91
        0
  1

274
    -2
284
     1
 64
     0
275
    -2
285
     1
 65
     0
276
    -2
286
     1
 66
     0
277
    -2
287
     1
 67
     0
278
    -2
288
     1
 68
     0
279
    -2
289
     1
 69
     0
  0
VISUALSTYLE
  5
2E
102
{ACAD_REACTORS
330
2F
102
}
330
2F
100
AcDbVisualStyle
  2
2dWireframe
 70
     4
177
     3
291
     0
 70
    58
 90
        0
176
     1
 90
        2
176
     1
 90
        1
176
     1
 90
        0
176
     1
 40
0.6
176
     1
 40
30.0
176
     1
 62
     7
176
     1
 90
        1
176
     1
 90
        4
176
     1
 62
     7
176
     1
 62
   257
176
     1
 90
        1
176
     1
 90
        1
176
     1
 40
1.0
176
     1
 90
        0
176
     1
 62
   257
176
     1
 40
1.0
176
     1
 90
        1
176
     1
 90
        6
176
     1
 90
        2
176
     1
 62
     7
176
     1
 90
        5
176
     1
 90
        0
176
     1
 90
        0
176
     1
290
     0
176
     1
 90
        1
176
     1
 40
0.0
176
     1
 90
        0
176
     1
290
     1
176
     1
290
     1
176
     1
290
     0
176
     1
290
     0
176
     1
290
     0
176
     1
290
     0
176
     1
290
     0
176
     1
290
     0
176
     1
290
     0
176
     1
 90
       50
176
     1
 40
0.0
176
     1
 40
1.0
176
     1
 90
        0
176
     1
 62
    18
420
        0
176
     1
 90
       50
176
     1
 90
        3
176
     1
 62
     5
420
      255
176
     1
290
     0
176
     1
 90
       50
176
     1
 90
       50
176
     1
 90
       50
176
     1
290
     0
176
     1
 90
       50
176
     1
 62
   256
176
     0
 40
1.0
176
     0
 90
        2
176
     1
  1
strokes_ogs.tif
176
     1
290
     0
176
     1
 40
1.0
176
     1
 40
1.0
176
     1
  0
VISUALSTYLE
  5
1A64
102
{ACAD_REACTORS
330
2F
102
}
330
2F
100
AcDbVisualStyle
  2
3D Hidden
 70
     6
177
     3
291
     0
 70
    58
 90
        1
176
     1
 90
        2
176
     1
 90
        2
176
     1
 90
        0
176
     1
 40
0.6
176
     1
 40
30.0
176
     1
 62
     7
176
     1
 90
        2
176
     1
 90
        2
176
     1
 62
     7
176
     1
 62
   257
176
     1
 90
        2
176
     1
 90
        1
176
     1
 40
40.0
176
     1
 90
        0
176
     1
 62
   257
176
     1
 40
1.0
176
     1
 90
        1
176
     1
 90
        6
176
     1
 90
        2
176
     1
 62
     7
176
     1
 90
        3
176
     1
 90
        0
176
     1
 90
        0
176
     1
290
     0
176
     1
 90
        1
176
     1
 40
0.0
176
     1
 90
        0
176
     1
290
     0
176
     1
290
     1
176
     1
290
     1
176
     1
290
     0
176
     1
290
     0
176
     1
290
     0
176
     1
290
     0
176
     1
290
     0
176
     1
290
     0
176
     1
 90
       50
176
     1
 40
0.0
176
     1
 40
1.0
176
     1
 90
        0
176
     1
 62
    18
420
        0
176
     1
 90
       50
176
     1
 90
        3
176
     1
 62
     5
420
      255
176
     1
290
     0
176
     1
 90
       50
176
     1
 90
       50
176
     1
 90
       50
176
     1
290
     0
176
     1
 90
       50
176
     1
 62
   256
176
     0
 40
1.0
176
     0
 90
        2
176
     1
  1
strokes_ogs.tif
176
     1
290
     0
176
     1
 40
1.0
176
     1
 40
1.0
176
     1
  0
VISUALSTYLE
  5
47
102
{ACAD_REACTORS
330
2F
102
}
330
2F
100
AcDbVisualStyle
  2
3dWireframe
 70
     5
177
     3
291
     0
 70
    58
 90
        0
176
     1
 90
        2
176
     1
 90
        1
176
     1
 90
        0
176
     1
 40
0.6
176
     1
 40
30.0
176
     1
 62
     7
176
     1
 90
        1
176
     1
 90
        4
176
     1
 62
     7
176
     1
 62
   257
176
     1
 90
        1
176
     1
 90
        1
176
     1
 40
1.0
176
     1
 90
        0
176
     1
 62
   257
176
     1
 40
1.0
176
     1
 90
        1
176
     1
 90
        6
176
     1
 90
        2
176
     1
 62
     7
176
     1
 90
        5
176
     1
 90
        0
176
     1
 90
        0
176
     1
290
     0
176
     1
 90
        1
176
     1
 40
0.0
176
     1
 90
        0
176
     1
290
     0
176
     1
290
     1
176
     1
290
     1
176
     1
290
     0
176
     1
290
     0
176
     1
290
     0
176
     1
290
     0
176
     1
290
     0
176
     1
290
     0
176
     1
 90
       50
176
     1
 40
0.0
176
     1
 40
1.0
176
     1
 90
        0
176
     1
 62
    18
420
        0
176
     1
 90
       50
176
     1
 90
        3
176
     1
 62
     5
420
      255
176
     1
290
     0
176
     1
 90
       50
176
     1
 90
       50
176
     1
 90
       50
176
     1
290
     0
176
     1
 90
       50
176
     1
 62
   256
176
     0
 40
1.0
176
     0
 90
        2
176
     1
  1
strokes_ogs.tif
176
     1
290
     0
176
     1
 40
1.0
176
     1
 40
1.0
176
     1
  0
VISUALSTYLE
  5
BC7
102
{ACAD_REACTORS
330
2F
102
}
330
2F
100
AcDbVisualStyle
  2
Basic
 70
     7
177
     3
291
     1
 70
    58
 90
        1
176
     1
 90
        0
176
     1
 90
        1
176
     1
 90
        0
176
     1
 40
0.6
176
     1
 40
30.0
176
     1
 62
     7
176
     1
 90
        0
176
     1
 90
        4
176
     1
 62
     7
176
     1
 62
   257
176
     1
 90
        1
176
     1
 90
        1
176
     1
 40
1.0
176
     1
 90
        8
176
     1
 62
     7
176
     1
 40
1.0
176
     1
 90
        1
176
     1
 90
        6
176
     1
 90
        2
176
     1
 62
     7
176
     1
 90
        5
176
     1
 90
        0
176
     1
 90
        0
176
     1
290
     0
176
     1
 90
        1
176
     1
 40
0.0
176
     1
 90
        0
176
     1
290
     0
176
     1
290
     1
176
     1
290
     1
176
     1
290
     0
176
     1
290
     0
176
     1
290
     0
176
     1
290
     0
176
     1
290
     0
176
     1
290
     0
176
     1
 90
       50
176
     1
 40
0.0
176
     1
 40
1.0
176
     1
 90
        0
176
     1
 62
    18
420
        0
176
     1
 90
       50
176
     1
 90
        3
176
     1
 62
     5
420
      255
176
     1
290
     0
176
     1
 90
       50
176
     1
 90
       50
176
     1
 90
       50
176
     1
290
     0
176
     1
 90
       50
176
     1
 62
   256
176
     0
 40
1.0
176
     0
 90
        2
176
     1
  1
strokes_ogs.tif
176
     1
290
     0
176
     1
 40
1.0
176
     1
 40
1.0
176
     1
  0
VISUALSTYLE
  5
BCC
102
{ACAD_REACTORS
330
2F
102
}
330
2F
100
AcDbVisualStyle
  2
Brighten
 70
    12
177
     3
291
     1
 70
    58
 90
        2
176
     1
 90
        2
176
     1
 90
        0
176
     1
 90
        0
176
     1
 40
0.6
176
     1
 40
30.0
176
     1
 62
     7
176
     1
 90
        1
176
     1
 90
        4
176
     1
 62
     7
176
     1
 62
   257
176
     1
 90
        1
176
     1
 90
        1
176
     1
 40
1.0
176
     1
 90
        8
176
     1
 62
     7
176
     1
 40
1.0
176
     1
 90
        1
176
     1
 90
        6
176
     1
 90
        2
176
     1
 62
     7
176
     1
 90
        5
176
     1
 90
        0
176
     1
 90
        0
176
     1
290
     0
176
     1
 90
        1
176
     1
 40
50.0
176
     1
 90
        0
176
     1
290
     0
176
     1
290
     1
176
     1
290
     1
176
     1
290
     0
176
     1
290
     0
176
     1
290
     0
176
     1
290
     0
176
     1
290
     0
176
     1
290
     0
176
     1
 90
       50
176
     1
 40
0.0
176
     1
 40
1.0
176
     1
 90
        0
176
     1
 62
    18
420
        0
176
     1
 90
       50
176
     1
 90
        3
176
     1
 62
     5
420
      255
176
     1
290
     0
176
     1
 90
       50
176
     1
 90
       50
176
     1
 90
       50
176
     1
290
     0
176
     1
 90
       50
176
     1
 62
   256
176
     0
 40
1.0
176
     0
 90
        2
176
     1
  1
strokes_ogs.tif
176
     1
290
     0
176
     1
 40
1.0
176
     1
 40
1.0
176
     1
  0
VISUALSTYLE
  5
BD0
102
{ACAD_REACTORS
330
2F
102
}
330
2F
100
AcDbVisualStyle
  2
ColorChange
 70
    16
177
     3
291
     1
 70
    58
 90
        2
176
     1
 90
        2
176
     1
 90
        3
176
     1
 90
        0
176
     1
 40
0.6
176
     1
 40
30.0
176
     1
 62
     8
176
     1
 90
        1
176
     1
 90
        4
176
     1
 62
     7
176
     1
 62
   257
176
     1
 90
        1
176
     1
 90
        1
176
     1
 40
1.0
176
     1
 90
        8
176
     1
 62
     8
176
     1
 40
1.0
176
     1
 90
        1
176
     1
 90
        6
176
     1
 90
        2
176
     1
 62
     7
176
     1
 90
        5
176
     1
 90
        0
176
     1
 90
        0
176
     1
290
     0
176
     1
 90
        1
176
     1
 40
0.0
176
     1
 90
        0
176
     1
290
     0
176
     1
290
     1
176
     1
290
     1
176
     1
290
     0
176
     1
290
     0
176
     1
290
     0
176
     1
290
     0
176
     1
290
     0
176
     1
290
     0
176
     1
 90
       50
176
     1
 40
0.0
176
     1
 40
1.0
176
     1
 90
        0
176
     1
 62
    18
420
        0
176
     1
 90
       50
176
     1
 90
        3
176
     1
 62
     5
420
      255
176
     1
290
     0
176
     1
 90
       50
176
     1
 90
       50
176
     1
 90
       50
176
     1
290
     0
176
     1
 90
       50
176
     1
 62
   256
176
     0
 40
1.0
176
     0
 90
        2
176
     1
  1
strokes_ogs.tif
176
     1
290
     0
176
     1
 40
1.0
176
     1
 40
1.0
176
     1
  0
VISUALSTYLE
  5
BCA
102
{ACAD_REACTORS
330
2F
102
}
330
2F
100
AcDbVisualStyle
  2
Conceptual
 70
     9
177
     3
291
     0
 70
    58
 90
        3
176
     1
 90
        2
176
     1
 90
        0
176
     1
 90
        0
176
     1
 40
0.6
176
     1
 40
30.0
176
     1
 62
     7
176
     1
 90
        2
176
     1
 90
        2
176
     1
 62
     7
176
     1
 62
   257
176
     1
 90
        1
176
     1
 90
        1
176
     1
 40
179.0
176
     1
 90
        8
176
     1
 62
     7
176
     1
 40
1.0
176
     1
 90
        1
176
     1
 90
        6
176
     1
 90
        2
176
     1
 62
     7
176
     1
 90
        3
176
     1
 90
        0
176
     1
 90
        0
176
     1
290
     0
176
     1
 90
        1
176
     1
 40
0.0
176
     1
 90
        0
176
     1
290
     0
176
     1
290
     1
176
     1
290
     1
176
     1
290
     0
176
     1
290
     0
176
     1
290
     0
176
     1
290
     0
176
     1
290
     0
176
     1
290
     0
176
     1
 90
       50
176
     1
 40
0.0
176
     1
 40
1.0
176
     1
 90
        0
176
     1
 62
    18
420
        0
176
     1
 90
       50
176
     1
 90
        3
176
     1
 62
     5
420
      255
176
     1
290
     0
176
     1
 90
       50
176
     1
 90
       50
176
     1
 90
       50
176
     1
290
     0
176
     1
 90
       50
176
     1
 62
   256
176
     0
 40
1.0
176
     0
 90
        2
176
     1
  1
strokes_ogs.tif
176
     1
290
     0
176
     1
 40
1.0
176
     1
 40
1.0
176
     1
  0
VISUALSTYLE
  5
BCB
102
{ACAD_REACTORS
330
2F
102
}
330
2F
100
AcDbVisualStyle
  2
Dim
 70
    11
177
     3
291
     1
 70
    58
 90
        2
176
     1
 90
        2
176
     1
 90
        0
176
     1
 90
        0
176
     1
 40
0.6
176
     1
 40
30.0
176
     1
 62
     7
176
     1
 90
        1
176
     1
 90
        4
176
     1
 62
     7
176
     1
 62
   257
176
     1
 90
        1
176
     1
 90
        1
176
     1
 40
1.0
176
     1
 90
        8
176
     1
 62
     7
176
     1
 40
1.0
176
     1
 90
        1
176
     1
 90
        6
176
     1
 90
        2
176
     1
 62
     7
176
     1
 90
        5
176
     1
 90
        0
176
     1
 90
        0
176
     1
290
     0
176
     1
 90
        1
176
     1
 40
-50.0
176
     1
 90
        0
176
     1
290
     0
176
     1
290
     1
176
     1
290
     1
176
     1
290
     0
176
     1
290
     0
176
     1
290
     0
176
     1
290
     0
176
     1
290
     0
176
     1
290
     0
176
     1
 90
       50
176
     1
 40
0.0
176
     1
 40
1.0
176
     1
 90
        0
176
     1
 62
    18
420
        0
176
     1
 90
       50
176
     1
 90
        3
176
     1
 62
     5
420
      255
176
     1
290
     0
176
     1
 90
       50
176
     1
 90
       50
176
     1
 90
       50
176
     1
290
     0
176
     1
 90
       50
176
     1
 62
   256
176
     0
 40
1.0
176
     0
 90
        2
176
     1
  1
strokes_ogs.tif
176
     1
290
     0
176
     1
 40
1.0
176
     1
 40
1.0
176
     1
  0
VISUALSTYLE
  5
BD8
102
{ACAD_REACTORS
330
2F
102
}
330
2F
100
AcDbVisualStyle
  2
EdgeColorOff
 70
    22
177
     3
291
     1
 70
    58
 90
        2
176
     0
 90
        2
176
     0
 90
        0
176
     0
 90
        0
176
     0
 40
0.6
176
     0
 40
30.0
176
     0
 62
     7
176
     0
 90
        1
176
     0
 90
        4
176
     0
 62
     7
176
     0
 62
   257
176
     0
 90
        1
176
     0
 90
        1
176
     0
 40
1.0
176
     0
 90
        8
176
     2
 62
     7
176
     0
 40
1.0
176
     0
 90
        1
176
     0
 90
        6
176
     0
 90
        2
176
     0
 62
     7
176
     0
 90
        5
176
     0
 90
        0
176
     0
 90
        0
176
     0
290
     0
176
     0
 90
        1
176
     0
 40
0.0
176
     0
 90
        0
176
     0
290
     0
176
     0
290
     1
176
     0
290
     1
176
     0
290
     0
176
     0
290
     0
176
     0
290
     0
176
     0
290
     0
176
     0
290
     0
176
     0
290
     0
176
     0
 90
       50
176
     0
 40
0.0
176
     0
 40
1.0
176
     0
 90
        0
176
     0
 62
    18
420
        0
176
     0
 90
       50
176
     0
 90
        3
176
     0
 62
     5
420
      255
176
     0
290
     0
176
     0
 90
       50
176
     0
 90
       50
176
     0
 90
       50
176
     0
290
     0
176
     0
 90
       50
176
     0
 62
   256
176
     0
 40
1.0
176
     0
 90
        2
176
     0
  1
strokes_ogs.tif
176
     0
290
     0
176
     0
 40
1.0
176
     0
 40
1.0
176
     0
  0
VISUALSTYLE
  5
BCF
102
{ACAD_REACTORS
330
2F
102
}
330
2F
100
AcDbVisualStyle
  2
Facepattern
 70
    15
177
     3
291
     1
 70
    58
 90
        2
176
     1
 90
        2
176
     1
 90
        0
176
     1
 90
        0
176
     1
 40
0.6
176
     1
 40
30.0
176
     1
 62
     7
176
     1
 90
        1
176
     1
 90
        4
176
     1
 62
     7
176
     1
 62
   257
176
     1
 90
        1
176
     1
 90
        1
176
     1
 40
1.0
176
     1
 90
        8
176
     1
 62
     7
176
     1
 40
1.0
176
     1
 90
        1
176
     1
 90
        6
176
     1
 90
        2
176
     1
 62
     7
176
     1
 90
        5
176
     1
 90
        0
176
     1
 90
        0
176
     1
290
     0
176
     1
 90
        1
176
     1
 40
0.0
176
     1
 90
        0
176
     1
290
     0
176
     1
290
     1
176
     1
290
     1
176
     1
290
     0
176
     1
290
     0
176
     1
290
     0
176
     1
290
     0
176
     1
290
     0
176
     1
290
     0
176
     1
 90
       50
176
     1
 40
0.0
176
     1
 40
1.0
176
     1
 90
        0
176
     1
 62
    18
420
        0
176
     1
 90
       50
176
     1
 90
        3
176
     1
 62
     5
420
      255
176
     1
290
     0
176
     1
 90
       50
176
     1
 90
       50
176
     1
 90
       50
176
     1
290
     0
176
     1
 90
       50
176
     1
 62
   256
176
     0
 40
1.0
176
     0
 90
        2
176
     1
  1
strokes_ogs.tif
176
     1
290
     0
176
     1
 40
1.0
176
     1
 40
1.0
176
     1
  0
VISUALSTYLE
  5
BC3
102
{ACAD_REACTORS
330
2F
102
}
330
2F
100
AcDbVisualStyle
  2
Flat
 70
     0
177
     3
291
     1
 70
    58
 90
        2
176
     1
 90
        1
176
     1
 90
        1
176
     1
 90
        2
176
     1
 40
0.6
176
     1
 40
30.0
176
     1
 62
     7
176
     1
 90
        0
176
     1
 90
        0
176
     1
 62
     7
176
     1
 62
   257
176
     1
 90
        1
176
     1
 90
        1
176
     1
 40
1.0
176
     1
 90
        8
176
     1
 62
     7
176
     1
 40
1.0
176
     1
 90
        1
176
     1
 90
        6
176
     1
 90
        2
176
     1
 62
     7
176
     1
 90
        5
176
     1
 90
        0
176
     1
 90
        0
176
     1
290
     0
176
     1
 90
       13
176
     1
 40
0.0
176
     1
 90
        0
176
     1
290
     0
176
     1
290
     1
176
     1
290
     1
176
     1
290
     0
176
     1
290
     0
176
     1
290
     0
176
     1
290
     0
176
     1
290
     0
176
     1
290
     0
176
     1
 90
       50
176
     1
 40
0.0
176
     1
 40
1.0
176
     1
 90
        0
176
     1
 62
    18
420
        0
176
     1
 90
       50
176
     1
 90
        3
176
     1
 62
     5
420
      255
176
     1
290
     0
176
     1
 90
       50
176
     1
 90
       50
176
     1
 90
       50
176
     1
290
     0
176
     1
 90
       50
176
     1
 62
   256
176
     0
 40
1.0
176
     0
 90
        2
176
     1
  1
strokes_ogs.tif
176
     1
290
     0
176
     1
 40
1.0
176
     1
 40
1.0
176
     1
  0
VISUALSTYLE
  5
BC4
102
{ACAD_REACTORS
330
2F
102
}
330
2F
100
AcDbVisualStyle
  2
FlatWithEdges
 70
     1
177
     3
291
     1
 70
    58
 90
        2
176
     1
 90
        1
176
     1
 90
        1
176
     1
 90
        2
176
     1
 40
0.6
176
     1
 40
30.0
176
     1
 62
     7
176
     1
 90
        1
176
     1
 90
        0
176
     1
 62
     7
176
     1
 62
   257
176
     1
 90
        1
176
     1
 90
        1
176
     1
 40
1.0
176
     1
 90
        0
176
     1
 62
   257
176
     1
 40
1.0
176
     1
 90
        1
176
     1
 90
        6
176
     1
 90
        2
176
     1
 62
     7
176
     1
 90
        5
176
     1
 90
        0
176
     1
 90
        0
176
     1
290
     0
176
     1
 90
       13
176
     1
 40
0.0
176
     1
 90
        0
176
     1
290
     0
176
     1
290
     1
176
     1
290
     1
176
     1
290
     0
176
     1
290
     0
176
     1
290
     0
176
     1
290
     0
176
     1
290
     0
176
     1
290
     0
176
     1
 90
       50
176
     1
 40
0.0
176
     1
 40
1.0
176
     1
 90
        0
176
     1
 62
    18
420
        0
176
     1
 90
       50
176
     1
 90
        3
176
     1
 62
     5
420
      255
176
     1
290
     0
176
     1
 90
       50
176
     1
 90
       50
176
     1
 90
       50
176
     1
290
     0
176
     1
 90
       50
176
     1
 62
   256
176
     0
 40
1.0
176
     0
 90
        2
176
     1
  1
strokes_ogs.tif
176
     1
290
     0
176
     1
 40
1.0
176
     1
 40
1.0
176
     1
  0
VISUALSTYLE
  5
BC5
102
{ACAD_REACTORS
330
2F
102
}
330
2F
100
AcDbVisualStyle
  2
Gouraud
 70
     2
177
     3
291
     1
 70
    58
 90
        2
176
     1
 90
        2
176
     1
 90
        1
176
     1
 90
        2
176
     1
 40
0.6
176
     1
 40
30.0
176
     1
 62
     7
176
     1
 90
        0
176
     1
 90
        0
176
     1
 62
     7
176
     1
 62
   257
176
     1
 90
        1
176
     1
 90
        1
176
     1
 40
1.0
176
     1
 90
        0
176
     1
 62
     7
176
     1
 40
1.0
176
     1
 90
        1
176
     1
 90
        6
176
     1
 90
        2
176
     1
 62
     7
176
     1
 90
        5
176
     1
 90
        0
176
     1
 90
        0
176
     1
290
     0
176
     1
 90
       13
176
     1
 40
0.0
176
     1
 90
        0
176
     1
290
     0
176
     1
290
     1
176
     1
290
     1
176
     1
290
     0
176
     1
290
     0
176
     1
290
     0
176
     1
290
     0
176
     1
290
     0
176
     1
290
     0
176
     1
 90
       50
176
     1
 40
0.0
176
     1
 40
1.0
176
     1
 90
        0
176
     1
 62
    18
420
        0
176
     1
 90
       50
176
     1
 90
        3
176
     1
 62
     5
420
      255
176
     1
290
     0
176
     1
 90
       50
176
     1
 90
       50
176
     1
 90
       50
176
     1
290
     0
176
     1
 90
       50
176
     1
 62
   256
176
     0
 40
1.0
176
     0
 90
        2
176
     1
  1
strokes_ogs.tif
176
     1
290
     0
176
     1
 40
1.0
176
     1
 40
1.0
176
     1
  0
VISUALSTYLE
  5
BC6
102
{ACAD_REACTORS
330
2F
102
}
330
2F
100
AcDbVisualStyle
  2
GouraudWithEdges
 70
     3
177
     3
291
     1
 70
    58
 90
        2
176
     1
 90
        2
176
     1
 90
        1
176
     1
 90
        2
176
     1
 40
0.6
176
     1
 40
30.0
176
     1
 62
     7
176
     1
 90
        1
176
     1
 90
        0
176
     1
 62
     7
176
     1
 62
   257
176
     1
 90
        1
176
     1
 90
        1
176
     1
 40
1.0
176
     1
 90
        0
176
     1
 62
   257
176
     1
 40
1.0
176
     1
 90
        1
176
     1
 90
        6
176
     1
 90
        2
176
     1
 62
     7
176
     1
 90
        5
176
     1
 90
        0
176
     1
 90
        0
176
     1
290
     0
176
     1
 90
       13
176
     1
 40
0.0
176
     1
 90
        0
176
     1
290
     0
176
     1
290
     1
176
     1
290
     1
176
     1
290
     0
176
     1
290
     0
176
     1
290
     0
176
     1
290
     0
176
     1
290
     0
176
     1
290
     0
176
     1
 90
       50
176
     1
 40
0.0
176
     1
 40
1.0
176
     1
 90
        0
176
     1
 62
    18
420
        0
176
     1
 90
       50
176
     1
 90
        3
176
     1
 62
     5
420
      255
176
     1
290
     0
176
     1
 90
       50
176
     1
 90
       50
176
     1
 90
       50
176
     1
290
     0
176
     1
 90
       50
176
     1
 62
   256
176
     0
 40
1.0
176
     0
 90
        2
176
     1
  1
strokes_ogs.tif
176
     1
290
     0
176
     1
 40
1.0
176
     1
 40
1.0
176
     1
  0
VISUALSTYLE
  5
BC9
102
{ACAD_REACTORS
330
2F
102
}
330
2F
100
AcDbVisualStyle
  2
Hidden
 70
     6
177
     3
291
     0
 70
    58
 90
        1
176
     1
 90
        2
176
     1
 90
        2
176
     1
 90
        0
176
     1
 40
0.6
176
     1
 40
30.0
176
     1
 62
     7
176
     1
 90
        2
176
     1
 90
        2
176
     1
 62
     7
176
     1
 62
   257
176
     1
 90
        2
176
     1
 90
        1
176
     1
 40
40.0
176
     1
 90
        0
176
     1
 62
   257
176
     1
 40
1.0
176
     1
 90
        1
176
     1
 90
        6
176
     1
 90
        2
176
     1
 62
     7
176
     1
 90
        3
176
     1
 90
        0
176
     1
 90
        0
176
     1
290
     0
176
     1
 90
        1
176
     1
 40
0.0
176
     1
 90
        0
176
     1
290
     0
176
     1
290
     1
176
     1
290
     1
176
     1
290
     0
176
     1
290
     0
176
     1
290
     0
176
     1
290
     0
176
     1
290
     0
176
     1
290
     0
176
     1
 90
       50
176
     1
 40
0.0
176
     1
 40
1.0
176
     1
 90
        0
176
     1
 62
    18
420
        0
176
     1
 90
       50
176
     1
 90
        3
176
     1
 62
     5
420
      255
176
     1
290
     0
176
     1
 90
       50
176
     1
 90
       50
176
     1
 90
       50
176
     1
290
     0
176
     1
 90
       50
176
     1
 62
   256
176
     0
 40
1.0
176
     0
 90
        2
176
     1
  1
strokes_ogs.tif
176
     1
290
     0
176
     1
 40
1.0
176
     1
 40
1.0
176
     1
  0
VISUALSTYLE
  5
BD6
102
{ACAD_REACTORS
330
2F
102
}
330
2F
100
AcDbVisualStyle
  2
JitterOff
 70
    20
177
     3
291
     1
 70
    58
 90
        2
176
     0
 90
        2
176
     0
 90
        0
176
     0
 90
        0
176
     0
 40
0.6
176
     0
 40
30.0
176
     0
 62
     7
176
     0
 90
        1
176
     0
 90
        4
176
     0
 62
     7
176
     0
 62
   257
176
     0
 90
        1
176
     0
 90
        1
176
     0
 40
1.0
176
     0
 90
       10
176
     2
 62
     7
176
     0
 40
1.0
176
     0
 90
        1
176
     0
 90
        6
176
     0
 90
        2
176
     0
 62
     7
176
     0
 90
        5
176
     0
 90
        0
176
     0
 90
        0
176
     0
290
     0
176
     0
 90
        1
176
     0
 40
0.0
176
     0
 90
        0
176
     0
290
     0
176
     0
290
     1
176
     0
290
     1
176
     0
290
     0
176
     0
290
     0
176
     0
290
     0
176
     0
290
     0
176
     0
290
     0
176
     0
290
     0
176
     0
 90
       50
176
     0
 40
0.0
176
     0
 40
1.0
176
     0
 90
        0
176
     0
 62
    18
420
        0
176
     0
 90
       50
176
     0
 90
        3
176
     0
 62
     5
420
      255
176
     0
290
     0
176
     0
 90
       50
176
     0
 90
       50
176
     0
 90
       50
176
     0
290
     0
176
     0
 90
       50
176
     0
 62
   256
176
     0
 40
1.0
176
     0
 90
        2
176
     0
  1
strokes_ogs.tif
176
     0
290
     0
176
     0
 40
1.0
176
     0
 40
1.0
176
     0
  0
VISUALSTYLE
  5
BCE
102
{ACAD_REACTORS
330
2F
102
}
330
2F
100
AcDbVisualStyle
  2
Linepattern
 70
    14
177
     3
291
     1
 70
    58
 90
        2
176
     1
 90
        2
176
     1
 90
        0
176
     1
 90
        0
176
     1
 40
0.6
176
     1
 40
30.0
176
     1
 62
     7
176
     1
 90
        1
176
     1
 90
        4
176
     1
 62
     7
176
     1
 62
   257
176
     1
 90
        7
176
     1
 90
        7
176
     1
 40
1.0
176
     1
 90
        8
176
     1
 62
     7
176
     1
 40
1.0
176
     1
 90
        1
176
     1
 90
        6
176
     1
 90
        2
176
     1
 62
     7
176
     1
 90
        5
176
     1
 90
        0
176
     1
 90
        0
176
     1
290
     0
176
     1
 90
        1
176
     1
 40
0.0
176
     1
 90
        0
176
     1
290
     0
176
     1
290
     1
176
     1
290
     1
176
     1
290
     0
176
     1
290
     0
176
     1
290
     0
176
     1
290
     0
176
     1
290
     0
176
     1
290
     0
176
     1
 90
       50
176
     1
 40
0.0
176
     1
 40
1.0
176
     1
 90
        0
176
     1
 62
    18
420
        0
176
     1
 90
       50
176
     1
 90
        3
176
     1
 62
     5
420
      255
176
     1
290
     0
176
     1
 90
       50
176
     1
 90
       50
176
     1
 90
       50
176
     1
290
     0
176
     1
 90
       50
176
     1
 62
   256
176
     0
 40
1.0
176
     0
 90
        2
176
     1
  1
strokes_ogs.tif
176
     1
290
     0
176
     1
 40
1.0
176
     1
 40
1.0
176
     1
  0
VISUALSTYLE
  5
BD7
102
{ACAD_REACTORS
330
2F
102
}
330
2F
100
AcDbVisualStyle
  2
OverhangOff
 70
    21
177
     3
291
     1
 70
    58
 90
        2
176
     0
 90
        2
176
     0
 90
        0
176
     0
 90
        0
176
     0
 40
0.6
176
     0
 40
30.0
176
     0
 62
     7
176
     0
 90
        1
176
     0
 90
        4
176
     0
 62
     7
176
     0
 62
   257
176
     0
 90
        1
176
     0
 90
        1
176
     0
 40
1.0
176
     0
 90
        9
176
     2
 62
     7
176
     0
 40
1.0
176
     0
 90
        1
176
     0
 90
        6
176
     0
 90
        2
176
     0
 62
     7
176
     0
 90
        5
176
     0
 90
        0
176
     0
 90
        0
176
     0
290
     0
176
     0
 90
        1
176
     0
 40
0.0
176
     0
 90
        0
176
     0
290
     0
176
     0
290
     1
176
     0
290
     1
176
     0
290
     0
176
     0
290
     0
176
     0
290
     0
176
     0
290
     0
176
     0
290
     0
176
     0
290
     0
176
     0
 90
       50
176
     0
 40
0.0
176
     0
 40
1.0
176
     0
 90
        0
176
     0
 62
    18
420
        0
176
     0
 90
       50
176
     0
 90
        3
176
     0
 62
     5
420
      255
176
     0
290
     0
176
     0
 90
       50
176
     0
 90
       50
176
     0
 90
       50
176
     0
290
     0
176
     0
 90
       50
176
     0
 62
   256
176
     0
 40
1.0
176
     0
 90
        2
176
     0
  1
strokes_ogs.tif
176
     0
290
     0
176
     0
 40
1.0
176
     0
 40
1.0
176
     0
  0
VISUALSTYLE
  5
46
102
{ACAD_REACTORS
330
2F
102
}
330
2F
100
AcDbVisualStyle
  2
Realistic
 70
     8
177
     3
291
     0
 70
    58
 90
        2
176
     1
 90
        2
176
     1
 90
        1
176
     1
 90
        0
176
     1
 40
0.6
176
     1
 40
30.0
176
     1
 62
     7
176
     1
 90
        1
176
     1
 90
        0
176
     1
 62
     7
176
     1
 62
   257
176
     1
 90
        1
176
     1
 90
        1
176
     1
 40
1.0
176
     1
 90
        8
176
     1
 62
     8
176
     1
 40
1.0
176
     1
 90
        1
176
     1
 90
        6
176
     1
 90
        2
176
     1
 62
     7
176
     1
 90
        5
176
     1
 90
        0
176
     1
 90
        0
176
     1
290
     0
176
     1
 90
       13
176
     1
 40
0.0
176
     1
 90
        0
176
     1
290
     0
176
     1
290
     1
176
     1
290
     1
176
     1
290
     0
176
     1
290
     0
176
     1
290
     0
176
     1
290
     0
176
     1
290
     0
176
     1
290
     0
176
     1
 90
       50
176
     1
 40
0.0
176
     1
 40
1.0
176
     1
 90
        0
176
     1
 62
    18
420
        0
176
     1
 90
       50
176
     1
 90
        3
176
     1
 62
     5
420
      255
176
     1
290
     0
176
     1
 90
       50
176
     1
 90
       50
176
     1
 90
       50
176
     1
290
     0
176
     1
 90
       50
176
     1
 62
   256
176
     0
 40
1.0
176
     0
 90
        2
176
     1
  1
strokes_ogs.tif
176
     1
290
     0
176
     1
 40
1.0
176
     1
 40
1.0
176
     1
  0
VISUALSTYLE
  5
BD5
102
{ACAD_REACTORS
330
2F
102
}
330
2F
100
AcDbVisualStyle
  2
Shaded
 70
    27
177
     3
291
     0
 70
    58
 90
        2
176
     1
 90
        2
176
     1
 90
        1
176
     1
 90
        2
176
     1
 40
0.6
176
     1
 40
30.0
176
     1
 62
     7
176
     1
 90
        0
176
     1
 90
        4
176
     1
 62
     7
176
     1
 62
   257
176
     1
 90
        1
176
     1
 90
        1
176
     1
 40
1.0
176
     1
 90
        8
176
     1
 62
   257
176
     1
 40
1.0
176
     1
 90
        1
176
     1
 90
        6
176
     1
 90
        2
176
     1
 62
     8
176
     1
 90
        3
176
     1
 90
        0
176
     1
 90
        0
176
     1
290
     0
176
     1
 90
        5
176
     1
 40
0.0
176
     1
 90
        0
176
     1
290
     0
176
     1
290
     1
176
     1
290
     1
176
     1
290
     0
176
     1
290
     0
176
     1
290
     0
176
     1
290
     0
176
     1
290
     0
176
     1
290
     0
176
     1
 90
       50
176
     1
 40
0.0
176
     1
 40
1.0
176
     1
 90
        0
176
     1
 62
    18
420
        0
176
     1
 90
       50
176
     1
 90
        3
176
     1
 62
     5
420
      255
176
     1
290
     0
176
     1
 90
       50
176
     1
 90
       50
176
     1
 90
       50
176
     1
290
     0
176
     1
 90
       50
176
     1
 62
   256
176
     0
 40
1.0
176
     0
 90
        2
176
     1
  1
strokes_ogs.tif
176
     1
290
     0
176
     1
 40
1.0
176
     1
 40
1.0
176
     1
  0
VISUALSTYLE
  5
BD4
102
{ACAD_REACTORS
330
2F
102
}
330
2F
100
AcDbVisualStyle
  2
Shaded with edges
 70
    26
177
     3
291
     0
 70
    58
 90
        2
176
     1
 90
        2
176
     1
 90
        1
176
     1
 90
        2
176
     1
 40
0.6
176
     1
 40
30.0
176
     1
 62
     7
176
     1
 90
        1
176
     1
 90
       10
176
     1
 62
     7
176
     1
 62
   257
176
     1
 90
        2
176
     1
 90
        1
176
     1
 40
1.0
176
     1
 90
        8
176
     1
 62
   257
176
     1
 40
1.0
176
     1
 90
        1
176
     1
 90
        6
176
     1
 90
        2
176
     1
 62
     7
176
     1
 90
        3
176
     1
 90
        0
176
     1
 90
        0
176
     1
290
     0
176
     1
 90
        5
176
     1
 40
0.0
176
     1
 90
        0
176
     1
290
     0
176
     1
290
     1
176
     1
290
     1
176
     1
290
     0
176
     1
290
     0
176
     1
290
     0
176
     1
290
     0
176
     1
290
     0
176
     1
290
     0
176
     1
 90
       50
176
     1
 40
0.0
176
     1
 40
1.0
176
     1
 90
        0
176
     1
 62
    18
420
        0
176
     1
 90
       50
176
     1
 90
        3
176
     1
 62
     5
420
      255
176
     1
290
     0
176
     1
 90
       50
176
     1
 90
       50
176
     1
 90
       50
176
     1
290
     0
176
     1
 90
       50
176
     1
 62
   256
176
     0
 40
1.0
176
     0
 90
        2
176
     1
  1
strokes_ogs.tif
176
     1
290
     0
176
     1
 40
1.0
176
     1
 40
1.0
176
     1
  0
VISUALSTYLE
  5
BD1
102
{ACAD_REACTORS
330
2F
102
}
330
2F
100
AcDbVisualStyle
  2
Shades of Gray
 70
    23
177
     3
291
     0
 70
    58
 90
        2
176
     1
 90
        2
176
     1
 90
        3
176
     1
 90
        0
176
     1
 40
0.6
176
     1
 40
30.0
176
     1
 62
     7
176
     1
 90
        2
176
     1
 90
        2
176
     1
 62
     7
176
     1
 62
     7
176
     1
 90
        1
176
     1
 90
        1
176
     1
 40
40.0
176
     1
 90
        8
176
     1
 62
     7
176
     1
 40
1.0
176
     1
 90
        1
176
     1
 90
        6
176
     1
 90
        2
176
     1
 62
     7
176
     1
 90
        3
176
     1
 90
        0
176
     1
 90
        0
176
     1
290
     0
176
     1
 90
        1
176
     1
 40
0.0
176
     1
 90
        0
176
     1
290
     0
176
     1
290
     1
176
     1
290
     1
176
     1
290
     0
176
     1
290
     0
176
     1
290
     0
176
     1
290
     0
176
     1
290
     0
176
     1
290
     0
176
     1
 90
       50
176
     1
 40
0.0
176
     1
 40
1.0
176
     1
 90
        0
176
     1
 62
    18
420
        0
176
     1
 90
       50
176
     1
 90
        3
176
     1
 62
     5
420
      255
176
     1
290
     0
176
     1
 90
       50
176
     1
 90
       50
176
     1
 90
       50
176
     1
290
     0
176
     1
 90
       50
176
     1
 62
   256
176
     0
 40
1.0
176
     0
 90
        2
176
     1
  1
strokes_ogs.tif
176
     1
290
     0
176
     1
 40
1.0
176
     1
 40
1.0
176
     1
  0
VISUALSTYLE
  5
BD2
102
{ACAD_REACTORS
330
2F
102
}
330
2F
100
AcDbVisualStyle
  2
Sketchy
 70
    24
177
     3
291
     0
 70
    58
 90
        1
176
     1
 90
        2
176
     1
 90
        2
176
     1
 90
        0
176
     1
 40
0.6
176
     1
 40
30.0
176
     1
 62
     7
176
     1
 90
        2
176
     1
 90
        2
176
     1
 62
     7
176
     1
 62
     7
176
     1
 90
        1
176
     1
 90
        1
176
     1
 40
40.0
176
     1
 90
       11
176
     1
 62
     7
176
     1
 40
1.0
176
     1
 90
        1
176
     1
 90
        6
176
     1
 90
        2
176
     1
 62
     7
176
     1
 90
        6
176
     1
 90
        0
176
     1
 90
        0
176
     1
290
     0
176
     1
 90
        1
176
     1
 40
0.0
176
     1
 90
        0
176
     1
290
     0
176
     1
290
     1
176
     1
290
     1
176
     1
290
     0
176
     1
290
     0
176
     1
290
     0
176
     1
290
     0
176
     1
290
     0
176
     1
290
     0
176
     1
 90
       50
176
     1
 40
0.0
176
     1
 40
1.0
176
     1
 90
        0
176
     1
 62
    18
420
        0
176
     1
 90
       50
176
     1
 90
        3
176
     1
 62
     5
420
      255
176
     1
290
     0
176
     1
 90
       50
176
     1
 90
       50
176
     1
 90
       50
176
     1
290
     0
176
     1
 90
       50
176
     1
 62
   256
176
     0
 40
1.0
176
     0
 90
        2
176
     1
  1
strokes_ogs.tif
176
     1
290
     0
176
     1
 40
1.0
176
     1
 40
1.0
176
     1
  0
VISUALSTYLE
  5
BCD
102
{ACAD_REACTORS
330
2F
102
}
330
2F
100
AcDbVisualStyle
  2
Thicken
 70
    13
177
     3
291
     1
 70
    58
 90
        2
176
     1
 90
        2
176
     1
 90
        0
176
     1
 90
        0
176
     1
 40
0.6
176
     1
 40
30.0
176
     1
 62
     7
176
     1
 90
        1
176
     1
 90
        4
176
     1
 62
     7
176
     1
 62
   257
176
     1
 90
        1
176
     1
 90
        1
176
     1
 40
1.0
176
     1
 90
       12
176
     1
 62
     7
176
     1
 40
1.0
176
     1
 90
        1
176
     1
 90
        6
176
     1
 90
        2
176
     1
 62
     7
176
     1
 90
        5
176
     1
 90
        0
176
     1
 90
        0
176
     1
290
     0
176
     1
 90
        1
176
     1
 40
0.0
176
     1
 90
        0
176
     1
290
     0
176
     1
290
     1
176
     1
290
     1
176
     1
290
     0
176
     1
290
     0
176
     1
290
     0
176
     1
290
     0
176
     1
290
     0
176
     1
290
     0
176
     1
 90
       50
176
     1
 40
0.0
176
     1
 40
1.0
176
     1
 90
        0
176
     1
 62
    18
420
        0
176
     1
 90
       50
176
     1
 90
        3
176
     1
 62
     5
420
      255
176
     1
290
     0
176
     1
 90
       50
176
     1
 90
       50
176
     1
 90
       50
176
     1
290
     0
176
     1
 90
       50
176
     1
 62
   256
176
     0
 40
1.0
176
     0
 90
        2
176
     1
  1
strokes_ogs.tif
176
     1
290
     0
176
     1
 40
1.0
176
     1
 40
1.0
176
     1
  0
VISUALSTYLE
  5
BC8
102
{ACAD_REACTORS
330
2F
102
}
330
2F
100
AcDbVisualStyle
  2
Wireframe
 70
     5
177
     3
291
     0
 70
    58
 90
        0
176
     1
 90
        2
176
     1
 90
        0
176
     1
 90
        0
176
     1
 40
0.6
176
     1
 40
30.0
176
     1
 62
     7
176
     1
 90
        1
176
     1
 90
        4
176
     1
 62
     7
176
     1
 62
   257
176
     1
 90
        1
176
     1
 90
        1
176
     1
 40
1.0
176
     1
 90
        0
176
     1
 62
   257
176
     1
 40
1.0
176
     1
 90
        1
176
     1
 90
        6
176
     1
 90
        2
176
     1
 62
     7
176
     1
 90
        3
176
     1
 90
        0
176
     1
 90
        0
176
     1
290
     0
176
     1
 90
        1
176
     1
 40
0.0
176
     1
 90
        0
176
     1
290
     0
176
     1
290
     1
176
     1
290
     1
176
     1
290
     0
176
     1
290
     0
176
     1
290
     0
176
     1
290
     0
176
     1
290
     0
176
     1
290
     0
176
     1
 90
       50
176
     1
 40
0.0
176
     1
 40
1.0
176
     1
 90
        0
176
     1
 62
    18
420
        0
176
     1
 90
       50
176
     1
 90
        3
176
     1
 62
     5
420
      255
176
     1
290
     0
176
     1
 90
       50
176
     1
 90
       50
176
     1
 90
       50
176
     1
290
     0
176
     1
 90
       50
176
     1
 62
   256
176
     0
 40
1.0
176
     0
 90
        2
176
     1
  1
strokes_ogs.tif
176
     1
290
     0
176
     1
 40
1.0
176
     1
 40
1.0
176
     1
  0
VISUALSTYLE
  5
BD3
102
{ACAD_REACTORS
330
2F
102
}
330
2F
100
AcDbVisualStyle
  2
X-Ray
 70
    25
177
     3
291
     0
 70
    58
 90
        2
176
     1
 90
        2
176
     1
 90
        1
176
     1
 90
        1
176
     1
 40
0.5
176
     1
 40
30.0
176
     1
 62
     7
176
     1
 90
        1
176
     1
 90
        0
176
     1
 62
     7
176
     1
 62
   257
176
     1
 90
        1
176
     1
 90
        1
176
     1
 40
1.0
176
     1
 90
        8
176
     1
 62
     7
176
     1
 40
1.0
176
     1
 90
        1
176
     1
 90
        6
176
     1
 90
        2
176
     1
 62
     7
176
     1
 90
        3
176
     1
 90
        0
176
     1
 90
        0
176
     1
290
     0
176
     1
 90
       13
176
     1
 40
0.0
176
     1
 90
        0
176
     1
290
     0
176
     1
290
     1
176
     1
290
     1
176
     1
290
     0
176
     1
290
     0
176
     1
290
     0
176
     1
290
     0
176
     1
290
     0
176
     1
290
     0
176
     1
 90
       50
176
     1
 40
0.0
176
     1
 40
1.0
176
     1
 90
        0
176
     1
 62
    18
420
        0
176
     1
 90
       50
176
     1
 90
        3
176
     1
 62
     5
420
      255
176
     1
290
     0
176
     1
 90
       50
176
     1
 90
       50
176
     1
 90
       50
176
     1
290
     0
176
     1
 90
       50
176
     1
 62
   256
176
     0
 40
1.0
176
     0
 90
        2
176
     1
  1
strokes_ogs.tif
176
     1
290
     0
176
     1
 40
1.0
176
     1
 40
1.0
176
     1
  0
DICTIONARYVAR
  5
BBE
102
{ACAD_REACTORS
330
BB8
102
}
330
BB8
100
DictionaryVariables
280
     0
  1
1:1
  0
DICTIONARYVAR
  5
BBA
102
{ACAD_REACTORS
330
BB8
102
}
330
BB8
100
DictionaryVariables
280
     0
  1
STANDARD
  0
DICTIONARYVAR
  5
BB9
102
{ACAD_REACTORS
330
BB8
102
}
330
BB8
100
DictionaryVariables
280
     0
  1
STANDARD
  0
DICTIONARYVAR
  5
BBB
102
{ACAD_REACTORS
330
BB8
102
}
330
BB8
100
DictionaryVariables
280
     0
  1
Metric50
  0
DICTIONARYVAR
  5
BBC
102
{ACAD_REACTORS
330
BB8
102
}
330
BB8
100
DictionaryVariables
280
     0
  1
Metric50
  0
DICTIONARYVAR
  5
C3B
102
{ACAD_REACTORS
330
BB8
102
}
330
BB8
100
DictionaryVariables
280
     0
  1
1
  0
DICTIONARYVAR
  5
C39
102
{ACAD_REACTORS
330
BB8
102
}
330
BB8
100
DictionaryVariables
280
     0
  1
1
  0
DICTIONARYVAR
  5
FF3
102
{ACAD_REACTORS
330
BB8
102
}
330
BB8
100
DictionaryVariables
280
     0
  1
4
  0
DICTIONARYVAR
  5
C38
102
{ACAD_REACTORS
330
BB8
102
}
330
BB8
100
DictionaryVariables
280
     0
  1
0
  0
DICTIONARYVAR
  5
BC0
102
{ACAD_REACTORS
330
BB8
102
}
330
BB8
100
DictionaryVariables
280
     0
  1
1
  0
DICTIONARYVAR
  5
BC1
102
{ACAD_REACTORS
330
BB8
102
}
330
BB8
100
DictionaryVariables
280
     0
  1
15
  0
DICTIONARYVAR
  5
BBF
102
{ACAD_REACTORS
330
BB8
102
}
330
BB8
100
DictionaryVariables
280
     0
  1
0
  0
DICTIONARYVAR
  5
BBD
102
{ACAD_REACTORS
330
BB8
102
}
330
BB8
100
DictionaryVariables
280
     0
  1
0
  0
DICTIONARYVAR
  5
C3C
102
{ACAD_REACTORS
330
BB8
102
}
330
BB8
100
DictionaryVariables
280
     0
  1
1
  0
DICTIONARYVAR
  5
C37
102
{ACAD_REACTORS
330
BB8
102
}
330
BB8
100
DictionaryVariables
280
     0
  1
127
  0
DICTIONARY
  5
39DA4
330
283CD
100
AcDbDictionary
280
     1
281
     1
  3
ACAD_XREC_ROUNDTRIP
360
39DA5
  0
DICTIONARY
  5
39DA0
330
BDD
100
AcDbDictionary
280
     1
281
     1
  3
ACAD_XREC_ROUNDTRIP
360
39DA1
  0
DICTIONARY
  5
18
330
16
100
AcDbDictionary
280
     1
281
     1
  0
DICTIONARY
  5
1F
330
1E
100
AcDbDictionary
280
     1
281
     1
  0
DICTIONARY
  5
E
330
C
100
AcDbDictionary
280
     1
281
     1
  3
BUMPTILE
360
F
  3
DIFFUSETILE
360
10
  3
OPACITYTILE
360
11
  3
REFLECTIONTILE
360
12
  0
DICTIONARY
  5
39DA2
330
283CC
100
AcDbDictionary
280
     1
281
     1
  3
ACAD_XREC_ROUNDTRIP
360
39DA3
  0
DICTIONARY
  5
39D9E
330
BDB
100
AcDbDictionary
280
     1
281
     1
  3
ACAD_XREC_ROUNDTRIP
360
39D9F
  0
DICTIONARY
  5
45
330
44
100
AcDbDictionary
280
     1
281
     1
  3
ACAD_ROUNDTRIP_2008_TABLESTYLE_CELLSTYLEMAP
360
39D9D
  0
XRECORD
  5
39DA5
102
{ACAD_REACTORS
330
39DA4
102
}
330
39DA4
100
AcDbXrecord
280
     1
102
DISPLAYNAME
  1
Imperial24
102
FLAGS
 90
        0
  0
XRECORD
  5
39DA1
102
{ACAD_REACTORS
330
39DA0
102
}
330
39DA0
100
AcDbXrecord
280
     1
102
DISPLAYNAME
  1
Metric50
102
FLAGS
 90
        0
  0
XRECORD
  5
F
102
{ACAD_REACTORS
330
E
102
}
330
E
100
AcDbXrecord
280
     1
270
     1
271
     1
  0
XRECORD
  5
10
102
{ACAD_REACTORS
330
E
102
}
330
E
100
AcDbXrecord
280
     1
270
     1
271
     1
  0
XRECORD
  5
11
102
{ACAD_REACTORS
330
E
102
}
330
E
100
AcDbXrecord
280
     1
270
     1
271
     1
  0
XRECORD
  5
12
102
{ACAD_REACTORS
330
E
102
}
330
E
100
AcDbXrecord
280
     1
270
     1
271
     1
  0
XRECORD
  5
39DA3
102
{ACAD_REACTORS
330
39DA2
102
}
330
39DA2
100
AcDbXrecord
280
     1
102
DISPLAYNAME
  1
Imperial24
102
FLAGS
 90
        0
  0
XRECORD
  5
39D9F
102
{ACAD_REACTORS
330
39D9E
102
}
330
39D9E
100
AcDbXrecord
280
     1
102
DISPLAYNAME
  1
Metric50
102
FLAGS
 90
        0
  0
CELLSTYLEMAP
  5
39D9D
102
{ACAD_REACTORS
330
45
102
}
330
45
100
AcDbCellStyleMap
 90
        3
300
CELLSTYLE
  1
TABLEFORMAT_BEGIN
 90
        5
170
     1
 91
        0
 92
    32768
 62
   257
 93
        1
300
CONTENTFORMAT
  1
CONTENTFORMAT_BEGIN
 90
        0
 91
        0
 92
      512
 93
        0
300

 40
0.0
140
1.0
 94
        5
 62
     0
340
25
144
6.0
309
CONTENTFORMAT_END
171
     1
301
MARGIN
  1
CELLMARGIN_BEGIN
 40
1.5
 40
1.5
 40
1.5
 40
1.5
 40
0.18
 40
0.18
309
CELLMARGIN_END
 94
        6
 95
        1
302
GRIDFORMAT
  1
GRIDFORMAT_BEGIN
 90
        0
 91
        1
 62
     0
 92
       -2
340
28
 93
        0
 40
1.125
309
GRIDFORMAT_END
 95
        2
302
GRIDFORMAT
  1
GRIDFORMAT_BEGIN
 90
        0
 91
        1
 62
     0
 92
       -2
340
28
 93
        0
 40
1.125
309
GRIDFORMAT_END
 95
        4
302
GRIDFORMAT
  1
GRIDFORMAT_BEGIN
 90
        0
 91
        1
 62
     0
 92
       -2
340
28
 93
        0
 40
1.125
309
GRIDFORMAT_END
 95
        8
302
GRIDFORMAT
  1
GRIDFORMAT_BEGIN
 90
        0
 91
        1
 62
     0
 92
       -2
340
28
 93
        0
 40
1.125
309
GRIDFORMAT_END
 95
       16
302
GRIDFORMAT
  1
GRIDFORMAT_BEGIN
 90
        0
 91
        1
 62
     0
 92
       -2
340
28
 93
        0
 40
1.125
309
GRIDFORMAT_END
 95
       32
302
GRIDFORMAT
  1
GRIDFORMAT_BEGIN
 90
        0
 91
        1
 62
     0
 92
       -2
340
28
 93
        0
 40
1.125
309
GRIDFORMAT_END
309
TABLEFORMAT_END
  1
CELLSTYLE_BEGIN
 90
        1
 91
        1
300
_TITLE
309
CELLSTYLE_END
300
CELLSTYLE
  1
TABLEFORMAT_BEGIN
 90
        5
170
     1
 91
        0
 92
        0
 62
   257
 93
        1
300
CONTENTFORMAT
  1
CONTENTFORMAT_BEGIN
 90
        0
 91
        0
 92
      512
 93
        0
300

 40
0.0
140
1.0
 94
        5
 62
     0
340
25
144
4.5
309
CONTENTFORMAT_END
171
     1
301
MARGIN
  1
CELLMARGIN_BEGIN
 40
1.5
 40
1.5
 40
1.5
 40
1.5
 40
0.18
 40
0.18
309
CELLMARGIN_END
 94
        6
 95
        1
302
GRIDFORMAT
  1
GRIDFORMAT_BEGIN
 90
        0
 91
        1
 62
     0
 92
       -2
340
28
 93
        0
 40
1.125
309
GRIDFORMAT_END
 95
        2
302
GRIDFORMAT
  1
GRIDFORMAT_BEGIN
 90
        0
 91
        1
 62
     0
 92
       -2
340
28
 93
        0
 40
1.125
309
GRIDFORMAT_END
 95
        4
302
GRIDFORMAT
  1
GRIDFORMAT_BEGIN
 90
        0
 91
        1
 62
     0
 92
       -2
340
28
 93
        0
 40
1.125
309
GRIDFORMAT_END
 95
        8
302
GRIDFORMAT
  1
GRIDFORMAT_BEGIN
 90
        0
 91
        1
 62
     0
 92
       -2
340
28
 93
        0
 40
1.125
309
GRIDFORMAT_END
 95
       16
302
GRIDFORMAT
  1
GRIDFORMAT_BEGIN
 90
        0
 91
        1
 62
     0
 92
       -2
340
28
 93
        0
 40
1.125
309
GRIDFORMAT_END
 95
       32
302
GRIDFORMAT
  1
GRIDFORMAT_BEGIN
 90
        0
 91
        1
 62
     0
 92
       -2
340
28
 93
        0
 40
1.125
309
GRIDFORMAT_END
309
TABLEFORMAT_END
  1
CELLSTYLE_BEGIN
 90
        2
 91
        1
300
_HEADER
309
CELLSTYLE_END
300
CELLSTYLE
  1
TABLEFORMAT_BEGIN
 90
        5
170
     1
 91
        0
 92
        0
 62
   257
 93
        1
300
CONTENTFORMAT
  1
CONTENTFORMAT_BEGIN
 90
        0
 91
        0
 92
      512
 93
        0
300

 40
0.0
140
1.0
 94
        2
 62
     0
340
25
144
4.5
309
CONTENTFORMAT_END
171
     1
301
MARGIN
  1
CELLMARGIN_BEGIN
 40
1.5
 40
1.5
 40
1.5
 40
1.5
 40
0.18
 40
0.18
309
CELLMARGIN_END
 94
        6
 95
        1
302
GRIDFORMAT
  1
GRIDFORMAT_BEGIN
 90
        0
 91
        1
 62
     0
 92
       -2
340
28
 93
        0
 40
1.125
309
GRIDFORMAT_END
 95
        2
302
GRIDFORMAT
  1
GRIDFORMAT_BEGIN
 90
        0
 91
        1
 62
     0
 92
       -2
340
28
 93
        0
 40
1.125
309
GRIDFORMAT_END
 95
        4
302
GRIDFORMAT
  1
GRIDFORMAT_BEGIN
 90
        0
 91
        1
 62
     0
 92
       -2
340
28
 93
        0
 40
1.125
309
GRIDFORMAT_END
 95
        8
302
GRIDFORMAT
  1
GRIDFORMAT_BEGIN
 90
        0
 91
        1
 62
     0
 92
       -2
340
28
 93
        0
 40
1.125
309
GRIDFORMAT_END
 95
       16
302
GRIDFORMAT
  1
GRIDFORMAT_BEGIN
 90
        0
 91
        1
 62
     0
 92
       -2
340
28
 93
        0
 40
1.125
309
GRIDFORMAT_END
 95
       32
302
GRIDFORMAT
  1
GRIDFORMAT_BEGIN
 90
        0
 91
        1
 62
     0
 92
       -2
340
28
 93
        0
 40
1.125
309
GRIDFORMAT_END
309
TABLEFORMAT_END
  1
CELLSTYLE_BEGIN
 90
        3
 91
        2
300
_DATA
309
CELLSTYLE_END
  0
ENDSEC
  0
SECTION
  2
ACDSDATA
 70
     2
 71
     6
  0
ACDSSCHEMA
 90
        0
  1
AcDb_Thumbnail_Schema
  2
AcDbDs::ID
280
    10
 91
        8
  2
Thumbnail_Data
280
    15
 91
        0
101
ACDSRECORD
 95
        0
 90
        1
  2
AcDbDs::TreatedAsObjectData
280
     1
291
     1
101
ACDSRECORD
 95
        0
 90
        2
  2
AcDbDs::Legacy
280
     1
291
     1
101
ACDSRECORD
  1
AcDbDs::ID
 90
        3
  2
AcDs:Indexable
280
     1
291
     1
101
ACDSRECORD
  1
AcDbDs::ID
 90
        4
  2
AcDbDs::HandleAttribute
280
     7
282
     1
  0
ACDSSCHEMA
 90
        1
  1
AcDbDs::TreatedAsObjectDataSchema
  2
AcDbDs::TreatedAsObjectData
280
     1
 91
        0
  0
ACDSSCHEMA
 90
        2
  1
AcDbDs::LegacySchema
  2
AcDbDs::Legacy
280
     1
 91
        0
  0
ACDSSCHEMA
 90
        3
  1
AcDbDs::IndexedPropertySchema
  2
AcDs:Indexable
280
     1
 91
        0
  0
ACDSSCHEMA
 90
        4
  1
AcDbDs::HandleAttributeSchema
  2
AcDbDs::HandleAttribute
280
     7
 91
        1
284
     1
  0
ACDSRECORD
 90
        0
  2
AcDbDs::ID
280
    10
320
16
  2
Thumbnail_Data
280
    15
 94
     1840
310
89504E470D0A1A0A0000000D494844520000010000000076080300000010A0BD3C00000300504C5445000000000000C8C8C80000000000000000000000000000000000000000000000000000330000660000990000CC0000FF0033000033330033660033990033CC0033FF0066000066330066660066990066CC0066FF0099
310
000099330099660099990099CC0099FF00CC0000CC3300CC6600CC9900CCCC00CCFF00FF0000FF3300FF6600FF9900FFCC00FFFF3300003300333300663300993300CC3300FF3333003333333333663333993333CC3333FF3366003366333366663366993366CC3366FF3399003399333399663399993399CC3399FF33CC00
310
33CC3333CC6633CC9933CCCC33CCFF33FF0033FF3333FF6633FF9933FFCC33FFFF6600006600336600666600996600CC6600FF6633006633336633666633996633CC6633FF6666006666336666666666996666CC6666FF6699006699336699666699996699CC6699FF66CC0066CC3366CC6666CC9966CCCC66CCFF66FF0066
310
FF3366FF6666FF9966FFCC66FFFF9900009900339900669900999900CC9900FF9933009933339933669933999933CC9933FF9966009966339966669966999966CC9966FF9999009999339999669999999999CC9999FF99CC0099CC3399CC6699CC9999CCCC99CCFF99FF0099FF3399FF6699FF9999FFCC99FFFFCC0000CC00
310
33CC0066CC0099CC00CCCC00FFCC3300CC3333CC3366CC3399CC33CCCC33FFCC6600CC6633CC6666CC6699CC66CCCC66FFCC9900CC9933CC9966CC9999CC99CCCC99FFCCCC00CCCC33CCCC66CCCC99CCCCCCCCCCFFCCFF00CCFF33CCFF66CCFF99CCFFCCCCFFFFFF0000FF0033FF0066FF0099FF00CCFF00FFFF3300FF3333
310
FF3366FF3399FF33CCFF33FFFF6600FF6633FF6666FF6699FF66CCFF66FFFF9900FF9933FF9966FF9999FF99CCFF99FFFFCC00FFCC33FFCC66FFCC99FFCCCCFFCCFFFFFF00FFFF33FFFF66FFFF99FFFFCCFFFFFF0000000D0D0D1A1A1A2828283535354343435050505D5D5D6B6B6B787878868686939393A1A1A1AEAEAEBB
310
BBBBC9C9C9D6D6D6E4E4E4F1F1F1FFFFFF00000000000000000000000000000000000000000000000000000000000008F1915C000003EB4944415478DAED9D5B9AAB200C80B39CBCB0B3B364B691F723D722C411A972A9C9379FB653A0E42709017506E019A1BB0B12AC25D57A2D068018D19AEAA4B6E0970D761F58AD2B2B
310
D716FCAE419AC2B217703E01200004800010000240000800012000048000A896EA75DA4079B48FAF072031400008000120000480001000024000BC13C0D317DE16E8A4B880001000CFAEE4F57A00B4931B36227C43EB023082462E376B6B61D202AD0400ACFAEE6CC7AF05C0FE6D431333C580060019D2B50134741ED357FA
310
DD0070B91870BB0534B6D11B808B7DC0CC5B6F0110249FF55AFABE34003D06409239EC8D70C0B5411C02201D85F33E8E0070E1BEDD5600F57D7C7416405E7F00557B07734B0CC089A641E4925A22056A3BDBA3626EEA563700C03901A42A6EFA9387901CB69F140616AFB090E24B43F1A1007C6FADA2101580A86AA9BAE23E
310
C4F811BA339D2C97DC9316B6A2CA107406607B8EC1CF7315D526E100FE10CF09128C1FA1F798338F27470DCBD2DD01D8710B4AC34EC572D0D3B3E7627E11EB2BF4FE710AC055C5B274670071DCE050E503FDFDD9BEF8B83C1702A80460BE176D32E4EAAB8131C09970A3FE790CDC9A23D83F4AE5524D64B8BB9A9839416F0B
310
C806EBAAC42D904F831C802CBB31238EA6108209C13B27E80E80765B39D77A500B205F739A781B3CC3E61B3F0C403300ACDF51888D2EE5EC0220CF3A3693374E688E6E71E6DCC03B437C792CA1900EEFB40B802EB53804C03575D8C99B09B0164150042D5794AE591569D0048C05C07ECD4D71D0D14FC5A905505F17380570
310
7AADA3024019034CF6E563801A1B046F05601E87652D209F06ADD27E16C852E795017066CC0270F9A209152115FD5D006C2264CDDFE4C2E89618343700BC1F00505C45D908300C0072CFAD3F6201D9B693757DA5D007837100CACD013F8727D3E07716E0EA63B1EF46E42C80B2B5D240009959F000CAE500B78028532666E3
310
D1D5CDBF620600B12861A161DDEE265EDC109D0A4048803F03797D7BF7A4CEDC000ACFBDAA0D9CDE22B10E80D60DFE3A009FAB42F30268BCC6632AE2F12D53F8D1BF2F80A2430F02803FEE19F3712596489DACEFB5C1730061248FF3A19659A098253B01687001FE12EE97002EE6558301B4BA8000581E40E59DAF3F0B40BF
310
1DC0CB2D4063E57CB4153C9F6E2705F0D70857DFF9AE8103A05F04A02CA7570130A5080001F060DBF2E0A4B88000100002400008000120000480001000BD13FC4CFE6532F01F2CF41D567F4B79A4B01DECB94F1787FD494DE26D2119F83E7D9C0E00750630DE05E80800BD2D08661E40AF09826F9D0605401A890B11002FCC
310
04CF1E44931820007E0CC0C7D7352F02405CA00B8005A4FBE854FFDB43AE20D1CD0D0E90EFFA3B1AC07FA3A387ED55AB94B90000000049454E44AE426082
  0
ACDSRECORD
 90
        0
  2
AcDbDs::ID
280
    10
320
1E
  2
Thumbnail_Data
280
    15
 94
      882
310
89504E470D0A1A0A0000000D49484452000000B80000007F08030000006B00F8F900000300504C5445FFFFFF000000C8C8C80000000000000000000000000000000000000000000000000000330000660000990000CC0000FF0033000033330033660033990033CC0033FF0066000066330066660066990066CC0066FF0099
310
000099330099660099990099CC0099FF00CC0000CC3300CC6600CC9900CCCC00CCFF00FF0000FF3300FF6600FF9900FFCC00FFFF3300003300333300663300993300CC3300FF3333003333333333663333993333CC3333FF3366003366333366663366993366CC3366FF3399003399333399663399993399CC3399FF33CC00
310
33CC3333CC6633CC9933CCCC33CCFF33FF0033FF3333FF6633FF9933FFCC33FFFF6600006600336600666600996600CC6600FF6633006633336633666633996633CC6633FF6666006666336666666666996666CC6666FF6699006699336699666699996699CC6699FF66CC0066CC3366CC6666CC9966CCCC66CCFF66FF0066
310
FF3366FF6666FF9966FFCC66FFFF9900009900339900669900999900CC9900FF9933009933339933669933999933CC9933FF9966009966339966669966999966CC9966FF9999009999339999669999999999CC9999FF99CC0099CC3399CC6699CC9999CCCC99CCFF99FF0099FF3399FF6699FF9999FFCC99FFFFCC0000CC00
310
33CC0066CC0099CC00CCCC00FFCC3300CC3333CC3366CC3399CC33CCCC33FFCC6600CC6633CC6666CC6699CC66CCCC66FFCC9900CC9933CC9966CC9999CC99CCCC99FFCCCC00CCCC33CCCC66CCCC99CCCCCCCCCCFFCCFF00CCFF33CCFF66CCFF99CCFFCCCCFFFFFF0000FF0033FF0066FF0099FF00CCFF00FFFF3300FF3333
310
FF3366FF3399FF33CCFF33FFFF6600FF6633FF6666FF6699FF66CCFF66FFFF9900FF9933FF9966FF9999FF99CCFF99FFFFCC00FFCC33FFCC66FFCC99FFCCCCFFCCFFFFFF00FFFF33FFFF66FFFF99FFFFCCFFFFFF0000000D0D0D1A1A1A2828283535354343435050505D5D5D6B6B6B787878868686939393A1A1A1AEAEAEBB
310
BBBBC9C9C9D6D6D6E4E4E4F1F1F1FFFFFF000000000000000000000000000000000000000000000000000000000000B0E2D2350000002D4944415478DAEDC13101000000C2A0F54FED6F06A00000000000000000000000000000000000000000000080335BC70001E79522D80000000049454E44AE426082
  0
ENDSEC
  0
EOF
